找回密码

蓝光电影网

查看: 123|回复: 2

[10bit.SDR] 七宝奇谋/小灵精 The.Goonies.1985.2160p.BluRay.x265.10bit.SDR.DTS-HD.MA.5.1-SWTYBLZ 38.23GB

[复制链接]

 成长值: 16065

发表于 2020-9-11 00:43:25 | 显示全部楼层 |阅读模式


◎译  名 七宝奇谋/小灵精
◎片  名 The Goonies
◎年  代 1985
◎产  地 美国
◎类  别 喜剧 / 家庭 / 冒险
◎语  言 英语,西班牙语,粤语,意大利语
◎上映日期 1985-06-07
◎IMDb评分  7.8/10 from 237824 users
◎IMDb链接  https://www.imdb.com/title/tt0089218/
◎豆瓣评分 7.6/10 from 2996 users
◎豆瓣链接 https://movie.douban.com/subject/1298273/
◎片  长 114 分钟
◎导  演 理查德·唐纳 Richard Donner
◎编  剧 克里斯·哥伦布 Chris Columbus / 史蒂文·斯皮尔伯格 Steven Spielberg
◎主  演 西恩·奥斯汀 Sean Astin
       乔什·布洛林 Josh Brolin
       杰夫·科恩 Jeff Cohen
       科里·费尔德曼 Corey Feldman
       凯利·格林 Kerri Green
       玛莎·普林顿 Martha Plimpton
       关继威 Jonathan Ke Quan
       John Matuszak
       罗伯特·戴维 Robert Davi
       乔·潘托里亚诺 Joe Pantoliano
       安妮·拉姆塞 Anne Ramsey
       露贝·安缇维洛 Lupe Ontiveros
       玛丽·艾伦·特雷纳 Mary Ellen Trainor
       基思·沃克 Keith Walker
       史蒂芬·安汀 Steven Antin
       George Robotham
       Charles McDaniel
       迈克尔·保罗·陈 Michael Paul Chan
       Nick McLean
       Jeb Stuart Adams
       吉纳·罗斯 Gene Ross
       纽维特·阿诺 Newt Arnold
       理查德·唐纳 Richard Donner
       辛迪·劳帕 Cyndi Lauper
◎标  签 冒险 | 美国 | 儿童 | 喜剧 | 1985 | 探险 | 斯皮尔伯格 | 美国电影
◎简  介


  故事发生在美国西岸的一个小镇中,开发者的到来扰乱了当地居民的平静生活,他们企图将这片人们赖以生存的土地据为己有,对于居民们来说,流离失所的生活似乎在所难免。米奇(西恩·奥斯汀 Sean Astin 饰)和布莱登(乔什·布洛林 Josh Brolin 饰)是一对兄弟,一次偶然中,他们获得了一张年代久远的海盗藏宝图。这一发现让兄弟两人欣喜若狂,因为如果藏宝图所言不假,那么他们就能够守住他们的家园。
  
  在朋友们的帮助下,兄弟两人找到了宝藏的入口,它不在别处,正在福瑞特利家的楼下。让众人感到十分头痛的是,这个福瑞特利家族在小镇上有着远扬的坏名声,当宝藏存在的消息不胫而走后,他们显然已经为了能够将其据为己有而展开了行动。
  1. Video
  2. ID                                       : 1
  3. Format                                   : HEVC
  4. Format/Info                              : High Efficiency Video Coding
  5. Format profile                           : Main [email protected]@High
  6. Codec ID                                 : V_MPEGH/ISO/HEVC
  7. Duration                                 : 1 h 53 min
  8. Bit rate                                 : 44.6 Mb/s
  9. Width                                    : 3 840 pixels
  10. Height                                   : 1 600 pixels
  11. Display aspect ratio                     : 2.40:1
  12. Frame rate mode                          : Constant
  13. Frame rate                               : 23.976 (24000/1001/189150) FPS
  14. Color space                              : YUV
  15. Chroma subsampling                       : 4:2:0
  16. Bit depth                                : 10 bits
  17. Bits/(Pixel*Frame)                       : 0.303
  18. Stream size                              : 35.5 GiB (94%)
  19. Title                                    : The.Goonies.1985.2160p.BluRay.x265.10bit.SDR.DTS-HD.MA.5.1-SWTYBLZ
  20. Writing library                          : x265 3.0ed72af837053:[Windows][GCC 8.2.0][64 bit] 10bit
  21. Encoding settings                        : cpuid=1111039 / frame-threads=6 / numa-pools=40 / wpp / no-pmode / no-pme / no-psnr / no-ssim / log-level=2 / input-csp=1 / input-res=3840x1600 / interlace=0 / total-frames=163959 / level-idc=51 / high-tier=1 / uhd-bd=0 / ref=3 / no-allow-non-conformance / repeat-headers / annexb / aud / hrd / info / hash=0 / no-temporal-layers / no-open-gop / min-keyint=1 / keyint=24 / gop-lookahead=0 / bframes=4 / b-adapt=2 / b-pyramid / bframe-bias=0 / rc-lookahead=25 / lookahead-slices=4 / scenecut=40 / radl=0 / no-splice / no-intra-refresh / ctu=64 / min-cu-size=8 / no-rect / no-amp / max-tu-size=32 / tu-inter-depth=1 / tu-intra-depth=1 / limit-tu=0 / rdoq-level=0 / dynamic-rd=0.00 / no-ssim-rd / signhide / no-tskip / nr-intra=0 / nr-inter=0 / no-constrained-intra / strong-intra-smoothing / max-merge=2 / limit-refs=3 / no-limit-modes / me=1 / subme=2 / merange=57 / temporal-mvp / weightp / no-weightb / no-analyze-src-pics / deblock=0:0 / no-sao / no-sao-non-deblock / rd=3 / no-early-skip / rskip / no-fast-intra / no-tskip-fast / no-cu-lossless / no-b-intra / no-splitrd-skip / rdpenalty=0 / psy-rd=2.00 / psy-rdoq=0.00 / no-rd-refine / no-lossless / cbqpoffs=0 / crqpoffs=0 / rc=crf / crf=16.0 / qcomp=0.60 / qpstep=4 / stats-write=0 / stats-read=0 / vbv-maxrate=160000 / vbv-bufsize=160000 / vbv-init=0.9 / crf-max=0.0 / crf-min=0.0 / ipratio=1.40 / pbratio=1.30 / aq-mode=1 / aq-strength=1.00 / cutree / zone-count=0 / no-strict-cbr / qg-size=32 / no-rc-grain / qpmax=69 / qpmin=0 / no-const-vbv / sar=1 / overscan=0 / videoformat=5 / range=0 / colorprim=2 / transfer=2 / colormatrix=2 / chromaloc=0 / display-window=0 / max-cll=0,0 / min-luma=0 / max-luma=1023 / log2-max-poc-lsb=8 / vui-timing-info / vui-hrd-info / slices=1 / opt-qp-pps / opt-ref-list-length-pps / no-multi-pass-opt-rps / scenecut-bias=0.05 / no-opt-cu-delta-qp / no-aq-motion / no-hdr / no-hdr-opt / no-dhdr10-opt / no-idr-recovery-sei / analysis-reuse-level=5 / scale-factor=0 / refine-intra=0 / refine-inter=0 / refine-mv=0 / refine-ctu-distortion=0 / no-limit-sao / ctu-info=0 / no-lowpass-dct / refine-analysis-type=0 / copy-pic=1 / max-ausize-factor=1.0 / no-dynamic-refine / no-single-sei / no-hevc-aq / qp-adaptation-range=1.00
  22. Language                                 : English
  23. Default                                  : Yes
  24. Forced                                   : No
  25. Audio #1
  26. ID                                       : 2
  27. ID in the original source medium         : 4352 (0x1100)
  28. Format                                   : DTS XLL
  29. Format/Info                              : Digital Theater Systems
  30. Commercial name                          : DTS-HD Master Audio
  31. Codec ID                                 : A_DTS
  32. Duration                                 : 1 h 53 min
  33. Bit rate mode                            : Variable
  34. Bit rate                                 : 2 300 kb/s
  35. Channel(s)                               : 6 channels
  36. Channel layout                           : C L R Ls Rs LFE
  37. Sampling rate                            : 48.0 kHz
  38. Frame rate                               : 93.750 FPS (512 SPF)
  39. Bit depth                                : 16 bits
  40. Compression mode                         : Lossless
  41. Stream size                              : 1.83 GiB (5%)
  42. Title                                    : The.Goonies.1985.2160p.BluRay.x265.10bit.SDR.DTS-HD.MA.5.1-SWTYBLZ
  43. Language                                 : English
  44. Default                                  : Yes
  45. Forced                                   : No
  46. Original source medium                   : Blu-ray
  47. Audio #2
  48. ID                                       : 3
  49. Format                                   : AC-3
  50. Format/Info                              : Audio Coding 3
  51. Commercial name                          : Dolby Digital
  52. Codec ID                                 : A_AC3
  53. Duration                                 : 1 h 53 min
  54. Bit rate mode                            : Constant
  55. Bit rate                                 : 640 kb/s
  56. Channel(s)                               : 6 channels
  57. Channel layout                           : L R C LFE Ls Rs
  58. Sampling rate                            : 48.0 kHz
  59. Frame rate                               : 31.250 FPS (1536 SPF)
  60. Compression mode                         : Lossy
  61. Stream size                              : 522 MiB (1%)
  62. Title                                    : The.Goonies.1985.2160p.BluRay.x265.10bit.SDR.DTS-HD.MA.5.1-SWTYBLZ
  63. Language                                 : English
  64. Service kind                             : Complete Main
  65. Default                                  : No
  66. Forced                                   : No
  67. Text #1
  68. ID                                       : 4
  69. Format                                   : UTF-8
  70. Codec ID                                 : S_TEXT/UTF8
  71. Codec ID/Info                            : UTF-8 Plain Text
  72. Duration                                 : 1 h 47 min
  73. Bit rate                                 : 60 b/s
  74. Count of elements                        : 1422
  75. Stream size                              : 48.1 KiB (0%)
  76. Title                                    : English-SRT
  77. Language                                 : English
  78. Default                                  : Yes
  79. Forced                                   : No
  80. Text #2
  81. ID                                       : 5
  82. ID in the original source medium         : 4769 (0x12A1)
  83. Format                                   : PGS
  84. Muxing mode                              : zlib
  85. Codec ID                                 : S_HDMV/PGS
  86. Codec ID/Info                            : Picture based subtitle format used on BDs/HD-DVDs
  87. Duration                                 : 1 h 48 min
  88. Bit rate                                 : 38.2 kb/s
  89. Count of elements                        : 3258
  90. Stream size                              : 29.6 MiB (0%)
  91. Title                                    : English-PGS
  92. Language                                 : English
  93. Default                                  : No
  94. Forced                                   : No
  95. Original source medium                   : Blu-ray
  96. Text #3
  97. ID                                       : 6
  98. ID in the original source medium         : 4770 (0x12A2)
  99. Format                                   : PGS
  100. Muxing mode                              : zlib
  101. Codec ID                                 : S_HDMV/PGS
  102. Codec ID/Info                            : Picture based subtitle format used on BDs/HD-DVDs
  103. Duration                                 : 1 h 53 min
  104. Bit rate                                 : 23.4 kb/s
  105. Count of elements                        : 2286
  106. Stream size                              : 18.9 MiB (0%)
  107. Title                                    : French-PGS
  108. Language                                 : French
  109. Default                                  : No
  110. Forced                                   : No
  111. Original source medium                   : Blu-ray
  112. Text #4
  113. ID                                       : 7
  114. ID in the original source medium         : 4771 (0x12A3)
  115. Format                                   : PGS
  116. Muxing mode                              : zlib
  117. Codec ID                                 : S_HDMV/PGS
  118. Codec ID/Info                            : Picture based subtitle format used on BDs/HD-DVDs
  119. Duration                                 : 1 h 53 min
  120. Bit rate                                 : 26.3 kb/s
  121. Count of elements                        : 2750
  122. Stream size                              : 21.3 MiB (0%)
  123. Title                                    : Spanish-PGS
  124. Language                                 : Spanish
  125. Default                                  : No
  126. Forced                                   : No
  127. Original source medium                   : Blu-ray
  128. Text #5
  129. ID                                       : 8
  130. ID in the original source medium         : 4772 (0x12A4)
  131. Format                                   : PGS
  132. Muxing mode                              : zlib
  133. Codec ID                                 : S_HDMV/PGS
  134. Codec ID/Info                            : Picture based subtitle format used on BDs/HD-DVDs
  135. Duration                                 : 1 h 53 min
  136. Bit rate                                 : 28.6 kb/s
  137. Count of elements                        : 2190
  138. Stream size                              : 23.2 MiB (0%)
  139. Title                                    : Dutch-PGS
  140. Language                                 : Dutch
  141. Default                                  : No
  142. Forced                                   : No
  143. Original source medium                   : Blu-ray
  144. Text #6
  145. ID                                       : 9
  146. ID in the original source medium         : 4773 (0x12A5)
  147. Format                                   : PGS
  148. Muxing mode                              : zlib
  149. Codec ID                                 : S_HDMV/PGS
  150. Codec ID/Info                            : Picture based subtitle format used on BDs/HD-DVDs
  151. Duration                                 : 1 h 53 min
  152. Bit rate                                 : 30.0 kb/s
  153. Count of elements                        : 2806
  154. Stream size                              : 24.3 MiB (0%)
  155. Title                                    : Chinese-PGS
  156. Language                                 : Chinese
  157. Default                                  : No
  158. Forced                                   : No
  159. Original source medium                   : Blu-ray
  160. Text #7
  161. ID                                       : 10
  162. ID in the original source medium         : 4774 (0x12A6)
  163. Format                                   : PGS
  164. Muxing mode                              : zlib
  165. Codec ID                                 : S_HDMV/PGS
  166. Codec ID/Info                            : Picture based subtitle format used on BDs/HD-DVDs
  167. Duration                                 : 1 h 53 min
  168. Bit rate                                 : 19.7 kb/s
  169. Count of elements                        : 2738
  170. Stream size                              : 16.0 MiB (0%)
  171. Title                                    : Korean-PGS
  172. Language                                 : Korean
  173. Default                                  : No
  174. Forced                                   : No
  175. Original source medium                   : Blu-ray
  176. Text #8
  177. ID                                       : 11
  178. ID in the original source medium         : 4775 (0x12A7)
  179. Format                                   : PGS
  180. Muxing mode                              : zlib
  181. Codec ID                                 : S_HDMV/PGS
  182. Codec ID/Info                            : Picture based subtitle format used on BDs/HD-DVDs
  183. Duration                                 : 1 h 53 min
  184. Bit rate                                 : 28.7 kb/s
  185. Count of elements                        : 2784
  186. Stream size                              : 23.2 MiB (0%)
  187. Title                                    : Spanish-PGS
  188. Language                                 : Spanish
  189. Default                                  : No
  190. Forced                                   : No
  191. Original source medium                   : Blu-ray
  192. Text #9
  193. ID                                       : 12
  194. ID in the original source medium         : 4776 (0x12A8)
  195. Format                                   : PGS
  196. Muxing mode                              : zlib
  197. Codec ID                                 : S_HDMV/PGS
  198. Codec ID/Info                            : Picture based subtitle format used on BDs/HD-DVDs
  199. Duration                                 : 1 h 53 min
  200. Bit rate                                 : 24.5 kb/s
  201. Count of elements                        : 2764
  202. Stream size                              : 19.8 MiB (0%)
  203. Title                                    : Czech-PGS
  204. Language                                 : Czech
  205. Default                                  : No
  206. Forced                                   : No
  207. Original source medium                   : Blu-ray
  208. Text #10
  209. ID                                       : 13
  210. ID in the original source medium         : 4777 (0x12A9)
  211. Format                                   : PGS
  212. Muxing mode                              : zlib
  213. Codec ID                                 : S_HDMV/PGS
  214. Codec ID/Info                            : Picture based subtitle format used on BDs/HD-DVDs
  215. Duration                                 : 1 h 53 min
  216. Bit rate                                 : 28.7 kb/s
  217. Count of elements                        : 2762
  218. Stream size                              : 23.3 MiB (0%)
  219. Title                                    : Romanian-PGS
  220. Language                                 : Romanian
  221. Default                                  : No
  222. Forced                                   : No
  223. Original source medium                   : Blu-ray
  224. Text #11
  225. ID                                       : 14
  226. ID in the original source medium         : 4778 (0x12AA)
  227. Format                                   : PGS
  228. Muxing mode                              : zlib
  229. Codec ID                                 : S_HDMV/PGS
  230. Codec ID/Info                            : Picture based subtitle format used on BDs/HD-DVDs
  231. Duration                                 : 1 h 53 min
  232. Bit rate                                 : 32.3 kb/s
  233. Count of elements                        : 2810
  234. Stream size                              : 26.2 MiB (0%)
  235. Title                                    : Thai-PGS
  236. Language                                 : Thai
  237. Default                                  : No
  238. Forced                                   : No
  239. Original source medium                   : Blu-ray
  240. Text #12
  241. ID                                       : 15
  242. ID in the original source medium         : 4786 (0x12B2)
  243. Format                                   : PGS
  244. Muxing mode                              : zlib
  245. Codec ID                                 : S_HDMV/PGS
  246. Codec ID/Info                            : Picture based subtitle format used on BDs/HD-DVDs
  247. Duration                                 : 1 h 53 min
  248. Bit rate                                 : 35.3 kb/s
  249. Count of elements                        : 3254
  250. Stream size                              : 28.7 MiB (0%)
  251. Title                                    : Italian-PGS
  252. Language                                 : Italian
  253. Default                                  : No
  254. Forced                                   : No
  255. Original source medium                   : Blu-ray
  256. Menu
  257. 00:00:00.000                             : en:Chapter 01
  258. 00:05:04.554                             : en:Chapter 02
  259. 00:07:08.636                             : en:Chapter 03
  260. 00:09:54.302                             : en:Chapter 04
  261. 00:13:49.370                             : en:Chapter 05
  262. 00:20:02.159                             : en:Chapter 06
  263. 00:22:44.738                             : en:Chapter 07
  264. 00:25:37.327                             : en:Chapter 08
  265. 00:27:13.006                             : en:Chapter 09
  266. 00:30:40.421                             : en:Chapter 10
  267. 00:33:33.970                             : en:Chapter 11
  268. 00:36:48.164                             : en:Chapter 12
  269. 00:38:42.194                             : en:Chapter 13
  270. 00:42:13.113                             : en:Chapter 14
  271. 00:46:10.434                             : en:Chapter 15
  272. 00:48:42.836                             : en:Chapter 16
  273. 00:49:47.442                             : en:Chapter 17
  274. 00:52:52.002                             : en:Chapter 18
  275. 00:55:47.802                             : en:Chapter 19
  276. 00:58:12.155                             : en:Chapter 20
  277. 00:59:31.150                             : en:Chapter 21
  278. 01:03:34.018                             : en:Chapter 22
  279. 01:07:11.736                             : en:Chapter 23
  280. 01:09:45.681                             : en:Chapter 24
  281. 01:12:47.571                             : en:Chapter 25
  282. 01:15:19.848                             : en:Chapter 26
  283. 01:18:18.443                             : en:Chapter 27
  284. 01:22:06.630                             : en:Chapter 28
  285. 01:23:39.639                             : en:Chapter 29
  286. 01:27:14.896                             : en:Chapter 30
  287. 01:30:33.970                             : en:Chapter 31
  288. 01:33:39.113                             : en:Chapter 32
  289. 01:38:38.704                             : en:Chapter 33
  290. 01:41:27.456                             : en:Chapter 34
  291. 01:45:15.058                             : en:Chapter 35
  292. 01:47:13.051                             : en:Chapter 36
  293. 01:48:31.004                             : en:Chapter 37
复制代码







                                       
                                       

                                       
                                       
                                       




回复

使用道具 举报

发表于 2020-9-11 21:53:32 | 显示全部楼层
楼主发贴辛苦了,谢谢楼主分享!我觉得蓝光电影网是注册对了!
回复 支持 反对

使用道具 举报

发表于 2020-9-13 00:51:34 | 显示全部楼层

楼主太厉害了!楼主,电影应该很好看我觉得蓝光电影网真是个好地方!
回复 支持 反对

使用道具 举报

懒得打字嘛,点击右侧快捷回复 【右侧内容,后台自定义】
您需要登录后才可以回帖 登录 | 立即加入

本版积分规则

现在加入蓝光电影网,注册一个账号
上个主题 下个主题 快速回复 收藏帖子 返回列表 客服中心 搜索

手机版|小黑屋| 蓝光电影网 |网站地图 

Copyright © 2015-2019 Comsenz Inc.  Template by 蓝光电影论坛 All Rights Reserved.

Powered by 蓝光电影网 X3.4

特别声明:本站所有资源均由网上收集而来,版权归原影音公司所有,如果侵犯了你的权益,请通知我们,我们会及时删除侵权内容.

快速回复 返回顶部 返回列表