找回密码

蓝光电影网

查看: 93|回复: 2

[8bit.SDR] 七宝奇谋/小灵精 The.Goonies.1985.2160p.BluRay.x264.8bit.SDR.DTS-HD.MA.5.1-SWTYBLZ 40.04GB

[复制链接]

 成长值: 16065

发表于 2020-9-11 00:43:24 | 显示全部楼层 |阅读模式


◎译  名 七宝奇谋/小灵精
◎片  名 The Goonies
◎年  代 1985
◎产  地 美国
◎类  别 喜剧 / 家庭 / 冒险
◎语  言 英语,西班牙语,粤语,意大利语
◎上映日期 1985-06-07
◎IMDb评分  7.8/10 from 237824 users
◎IMDb链接  https://www.imdb.com/title/tt0089218/
◎豆瓣评分 7.6/10 from 2996 users
◎豆瓣链接 https://movie.douban.com/subject/1298273/
◎片  长 114 分钟
◎导  演 理查德·唐纳 Richard Donner
◎编  剧 克里斯·哥伦布 Chris Columbus / 史蒂文·斯皮尔伯格 Steven Spielberg
◎主  演 西恩·奥斯汀 Sean Astin
       乔什·布洛林 Josh Brolin
       杰夫·科恩 Jeff Cohen
       科里·费尔德曼 Corey Feldman
       凯利·格林 Kerri Green
       玛莎·普林顿 Martha Plimpton
       关继威 Jonathan Ke Quan
       John Matuszak
       罗伯特·戴维 Robert Davi
       乔·潘托里亚诺 Joe Pantoliano
       安妮·拉姆塞 Anne Ramsey
       露贝·安缇维洛 Lupe Ontiveros
       玛丽·艾伦·特雷纳 Mary Ellen Trainor
       基思·沃克 Keith Walker
       史蒂芬·安汀 Steven Antin
       George Robotham
       Charles McDaniel
       迈克尔·保罗·陈 Michael Paul Chan
       Nick McLean
       Jeb Stuart Adams
       吉纳·罗斯 Gene Ross
       纽维特·阿诺 Newt Arnold
       理查德·唐纳 Richard Donner
       辛迪·劳帕 Cyndi Lauper
◎标  签 冒险 | 美国 | 儿童 | 喜剧 | 1985 | 探险 | 斯皮尔伯格 | 美国电影
◎简  介


  故事发生在美国西岸的一个小镇中,开发者的到来扰乱了当地居民的平静生活,他们企图将这片人们赖以生存的土地据为己有,对于居民们来说,流离失所的生活似乎在所难免。米奇(西恩·奥斯汀 Sean Astin 饰)和布莱登(乔什·布洛林 Josh Brolin 饰)是一对兄弟,一次偶然中,他们获得了一张年代久远的海盗藏宝图。这一发现让兄弟两人欣喜若狂,因为如果藏宝图所言不假,那么他们就能够守住他们的家园。
  
  在朋友们的帮助下,兄弟两人找到了宝藏的入口,它不在别处,正在福瑞特利家的楼下。让众人感到十分头痛的是,这个福瑞特利家族在小镇上有着远扬的坏名声,当宝藏存在的消息不胫而走后,他们显然已经为了能够将其据为己有而展开了行动。
  1. Video
  2. ID                                       : 1
  3. Format                                   : AVC
  4. Format/Info                              : Advanced Video Codec
  5. Format profile                           : [email protected]
  6. Format settings                          : CABAC / 5 Ref Frames
  7. Format settings, CABAC                   : Yes
  8. Format settings, Reference frames        : 5 frames
  9. Codec ID                                 : V_MPEG4/ISO/AVC
  10. Duration                                 : 1 h 53 min
  11. Bit rate                                 : 46.8 Mb/s
  12. Width                                    : 3 840 pixels
  13. Height                                   : 1 600 pixels
  14. Display aspect ratio                     : 2.40:1
  15. Frame rate mode                          : Constant
  16. Frame rate                               : 23.976 (24000/1001/189150) FPS
  17. Color space                              : YUV
  18. Chroma subsampling                       : 4:2:0
  19. Bit depth                                : 8 bits
  20. Scan type                                : Progressive
  21. Bits/(Pixel*Frame)                       : 0.318
  22. Stream size                              : 37.3 GiB (94%)
  23. Title                                    : The.Goonies.1985.2160p.BluRay.x264.8bit.SDR.DTS-HD.MA.5.1-SWTYBLZ
  24. Writing library                          : x264 core 157 r2935 545de2f
  25. Encoding settings                        : cabac=1 / ref=5 / deblock=1:-1:-1 / analyse=0x3:0x113 / me=umh / subme=10 / psy=1 / psy_rd=1.00:0.15 / mixed_ref=1 / me_range=48 / chroma_me=1 / trellis=2 / 8x8dct=1 / cqm=0 / deadzone=21,11 / fast_pskip=1 / chroma_qp_offset=-3 / threads=48 / lookahead_threads=4 / sliced_threads=0 / nr=0 / decimate=0 / interlaced=0 / bluray_compat=0 / constrained_intra=0 / bframes=3 / b_pyramid=2 / b_adapt=2 / b_bias=0 / direct=3 / weightb=1 / open_gop=0 / weightp=2 / keyint=250 / keyint_min=23 / scenecut=40 / intra_refresh=0 / rc_lookahead=50 / rc=crf / mbtree=1 / crf=18.0 / qcomp=0.60 / qpmin=0 / qpmax=69 / qpstep=4 / ip_ratio=1.40 / aq=1:1.00
  26. Language                                 : English
  27. Default                                  : Yes
  28. Forced                                   : No
  29. Audio #1
  30. ID                                       : 2
  31. ID in the original source medium         : 4352 (0x1100)
  32. Format                                   : DTS XLL
  33. Format/Info                              : Digital Theater Systems
  34. Commercial name                          : DTS-HD Master Audio
  35. Codec ID                                 : A_DTS
  36. Duration                                 : 1 h 53 min
  37. Bit rate mode                            : Variable
  38. Bit rate                                 : 2 300 kb/s
  39. Channel(s)                               : 6 channels
  40. Channel layout                           : C L R Ls Rs LFE
  41. Sampling rate                            : 48.0 kHz
  42. Frame rate                               : 93.750 FPS (512 SPF)
  43. Bit depth                                : 16 bits
  44. Compression mode                         : Lossless
  45. Stream size                              : 1.83 GiB (5%)
  46. Title                                    : The.Goonies.1985.2160p.BluRay.x264.8bit.SDR.DTS-HD.MA.5.1-SWTYBLZ
  47. Language                                 : English
  48. Default                                  : Yes
  49. Forced                                   : No
  50. Original source medium                   : Blu-ray
  51. Audio #2
  52. ID                                       : 3
  53. Format                                   : AC-3
  54. Format/Info                              : Audio Coding 3
  55. Commercial name                          : Dolby Digital
  56. Codec ID                                 : A_AC3
  57. Duration                                 : 1 h 53 min
  58. Bit rate mode                            : Constant
  59. Bit rate                                 : 640 kb/s
  60. Channel(s)                               : 6 channels
  61. Channel layout                           : L R C LFE Ls Rs
  62. Sampling rate                            : 48.0 kHz
  63. Frame rate                               : 31.250 FPS (1536 SPF)
  64. Compression mode                         : Lossy
  65. Stream size                              : 522 MiB (1%)
  66. Title                                    : The.Goonies.1985.2160p.BluRay.x264.8bit.SDR.DTS-HD.MA.5.1-SWTYBLZ
  67. Language                                 : English
  68. Service kind                             : Complete Main
  69. Default                                  : No
  70. Forced                                   : No
  71. Text #1
  72. ID                                       : 4
  73. Format                                   : UTF-8
  74. Codec ID                                 : S_TEXT/UTF8
  75. Codec ID/Info                            : UTF-8 Plain Text
  76. Duration                                 : 1 h 47 min
  77. Bit rate                                 : 60 b/s
  78. Count of elements                        : 1422
  79. Stream size                              : 48.1 KiB (0%)
  80. Title                                    : English-SRT
  81. Language                                 : English
  82. Default                                  : Yes
  83. Forced                                   : No
  84. Text #2
  85. ID                                       : 5
  86. ID in the original source medium         : 4769 (0x12A1)
  87. Format                                   : PGS
  88. Muxing mode                              : zlib
  89. Codec ID                                 : S_HDMV/PGS
  90. Codec ID/Info                            : Picture based subtitle format used on BDs/HD-DVDs
  91. Duration                                 : 1 h 48 min
  92. Bit rate                                 : 38.2 kb/s
  93. Count of elements                        : 3258
  94. Stream size                              : 29.6 MiB (0%)
  95. Title                                    : English-PGS
  96. Language                                 : English
  97. Default                                  : No
  98. Forced                                   : No
  99. Original source medium                   : Blu-ray
  100. Text #3
  101. ID                                       : 6
  102. ID in the original source medium         : 4770 (0x12A2)
  103. Format                                   : PGS
  104. Muxing mode                              : zlib
  105. Codec ID                                 : S_HDMV/PGS
  106. Codec ID/Info                            : Picture based subtitle format used on BDs/HD-DVDs
  107. Duration                                 : 1 h 53 min
  108. Bit rate                                 : 23.4 kb/s
  109. Count of elements                        : 2286
  110. Stream size                              : 18.9 MiB (0%)
  111. Title                                    : French-PGS
  112. Language                                 : French
  113. Default                                  : No
  114. Forced                                   : No
  115. Original source medium                   : Blu-ray
  116. Text #4
  117. ID                                       : 7
  118. ID in the original source medium         : 4771 (0x12A3)
  119. Format                                   : PGS
  120. Muxing mode                              : zlib
  121. Codec ID                                 : S_HDMV/PGS
  122. Codec ID/Info                            : Picture based subtitle format used on BDs/HD-DVDs
  123. Duration                                 : 1 h 53 min
  124. Bit rate                                 : 26.3 kb/s
  125. Count of elements                        : 2750
  126. Stream size                              : 21.3 MiB (0%)
  127. Title                                    : Spanish-PGS
  128. Language                                 : Spanish
  129. Default                                  : No
  130. Forced                                   : No
  131. Original source medium                   : Blu-ray
  132. Text #5
  133. ID                                       : 8
  134. ID in the original source medium         : 4772 (0x12A4)
  135. Format                                   : PGS
  136. Muxing mode                              : zlib
  137. Codec ID                                 : S_HDMV/PGS
  138. Codec ID/Info                            : Picture based subtitle format used on BDs/HD-DVDs
  139. Duration                                 : 1 h 53 min
  140. Bit rate                                 : 28.6 kb/s
  141. Count of elements                        : 2190
  142. Stream size                              : 23.2 MiB (0%)
  143. Title                                    : Dutch-PGS
  144. Language                                 : Dutch
  145. Default                                  : No
  146. Forced                                   : No
  147. Original source medium                   : Blu-ray
  148. Text #6
  149. ID                                       : 9
  150. ID in the original source medium         : 4773 (0x12A5)
  151. Format                                   : PGS
  152. Muxing mode                              : zlib
  153. Codec ID                                 : S_HDMV/PGS
  154. Codec ID/Info                            : Picture based subtitle format used on BDs/HD-DVDs
  155. Duration                                 : 1 h 53 min
  156. Bit rate                                 : 30.0 kb/s
  157. Count of elements                        : 2806
  158. Stream size                              : 24.3 MiB (0%)
  159. Title                                    : Chinese-PGS
  160. Language                                 : Chinese
  161. Default                                  : No
  162. Forced                                   : No
  163. Original source medium                   : Blu-ray
  164. Text #7
  165. ID                                       : 10
  166. ID in the original source medium         : 4774 (0x12A6)
  167. Format                                   : PGS
  168. Muxing mode                              : zlib
  169. Codec ID                                 : S_HDMV/PGS
  170. Codec ID/Info                            : Picture based subtitle format used on BDs/HD-DVDs
  171. Duration                                 : 1 h 53 min
  172. Bit rate                                 : 19.7 kb/s
  173. Count of elements                        : 2738
  174. Stream size                              : 16.0 MiB (0%)
  175. Title                                    : Korean-PGS
  176. Language                                 : Korean
  177. Default                                  : No
  178. Forced                                   : No
  179. Original source medium                   : Blu-ray
  180. Text #8
  181. ID                                       : 11
  182. ID in the original source medium         : 4775 (0x12A7)
  183. Format                                   : PGS
  184. Muxing mode                              : zlib
  185. Codec ID                                 : S_HDMV/PGS
  186. Codec ID/Info                            : Picture based subtitle format used on BDs/HD-DVDs
  187. Duration                                 : 1 h 53 min
  188. Bit rate                                 : 28.7 kb/s
  189. Count of elements                        : 2784
  190. Stream size                              : 23.2 MiB (0%)
  191. Title                                    : Spanish-PGS
  192. Language                                 : Spanish
  193. Default                                  : No
  194. Forced                                   : No
  195. Original source medium                   : Blu-ray
  196. Text #9
  197. ID                                       : 12
  198. ID in the original source medium         : 4776 (0x12A8)
  199. Format                                   : PGS
  200. Muxing mode                              : zlib
  201. Codec ID                                 : S_HDMV/PGS
  202. Codec ID/Info                            : Picture based subtitle format used on BDs/HD-DVDs
  203. Duration                                 : 1 h 53 min
  204. Bit rate                                 : 24.5 kb/s
  205. Count of elements                        : 2764
  206. Stream size                              : 19.8 MiB (0%)
  207. Title                                    : Czech-PGS
  208. Language                                 : Czech
  209. Default                                  : No
  210. Forced                                   : No
  211. Original source medium                   : Blu-ray
  212. Text #10
  213. ID                                       : 13
  214. ID in the original source medium         : 4777 (0x12A9)
  215. Format                                   : PGS
  216. Muxing mode                              : zlib
  217. Codec ID                                 : S_HDMV/PGS
  218. Codec ID/Info                            : Picture based subtitle format used on BDs/HD-DVDs
  219. Duration                                 : 1 h 53 min
  220. Bit rate                                 : 28.7 kb/s
  221. Count of elements                        : 2762
  222. Stream size                              : 23.3 MiB (0%)
  223. Title                                    : Romanian-PGS
  224. Language                                 : Romanian
  225. Default                                  : No
  226. Forced                                   : No
  227. Original source medium                   : Blu-ray
  228. Text #11
  229. ID                                       : 14
  230. ID in the original source medium         : 4778 (0x12AA)
  231. Format                                   : PGS
  232. Muxing mode                              : zlib
  233. Codec ID                                 : S_HDMV/PGS
  234. Codec ID/Info                            : Picture based subtitle format used on BDs/HD-DVDs
  235. Duration                                 : 1 h 53 min
  236. Bit rate                                 : 32.3 kb/s
  237. Count of elements                        : 2810
  238. Stream size                              : 26.2 MiB (0%)
  239. Title                                    : Thai-PGS
  240. Language                                 : Thai
  241. Default                                  : No
  242. Forced                                   : No
  243. Original source medium                   : Blu-ray
  244. Text #12
  245. ID                                       : 15
  246. ID in the original source medium         : 4786 (0x12B2)
  247. Format                                   : PGS
  248. Muxing mode                              : zlib
  249. Codec ID                                 : S_HDMV/PGS
  250. Codec ID/Info                            : Picture based subtitle format used on BDs/HD-DVDs
  251. Duration                                 : 1 h 53 min
  252. Bit rate                                 : 35.3 kb/s
  253. Count of elements                        : 3254
  254. Stream size                              : 28.7 MiB (0%)
  255. Title                                    : Italian-PGS
  256. Language                                 : Italian
  257. Default                                  : No
  258. Forced                                   : No
  259. Original source medium                   : Blu-ray
  260. Menu
  261. 00:00:00.000                             : en:Chapter 01
  262. 00:05:04.554                             : en:Chapter 02
  263. 00:07:08.636                             : en:Chapter 03
  264. 00:09:54.302                             : en:Chapter 04
  265. 00:13:49.370                             : en:Chapter 05
  266. 00:20:02.159                             : en:Chapter 06
  267. 00:22:44.738                             : en:Chapter 07
  268. 00:25:37.327                             : en:Chapter 08
  269. 00:27:13.006                             : en:Chapter 09
  270. 00:30:40.421                             : en:Chapter 10
  271. 00:33:33.970                             : en:Chapter 11
  272. 00:36:48.164                             : en:Chapter 12
  273. 00:38:42.194                             : en:Chapter 13
  274. 00:42:13.113                             : en:Chapter 14
  275. 00:46:10.434                             : en:Chapter 15
  276. 00:48:42.836                             : en:Chapter 16
  277. 00:49:47.442                             : en:Chapter 17
  278. 00:52:52.002                             : en:Chapter 18
  279. 00:55:47.802                             : en:Chapter 19
  280. 00:58:12.155                             : en:Chapter 20
  281. 00:59:31.150                             : en:Chapter 21
  282. 01:03:34.018                             : en:Chapter 22
  283. 01:07:11.736                             : en:Chapter 23
  284. 01:09:45.681                             : en:Chapter 24
  285. 01:12:47.571                             : en:Chapter 25
  286. 01:15:19.848                             : en:Chapter 26
  287. 01:18:18.443                             : en:Chapter 27
  288. 01:22:06.630                             : en:Chapter 28
  289. 01:23:39.639                             : en:Chapter 29
  290. 01:27:14.896                             : en:Chapter 30
  291. 01:30:33.970                             : en:Chapter 31
  292. 01:33:39.113                             : en:Chapter 32
  293. 01:38:38.704                             : en:Chapter 33
  294. 01:41:27.456                             : en:Chapter 34
  295. 01:45:15.058                             : en:Chapter 35
  296. 01:47:13.051                             : en:Chapter 36
  297. 01:48:31.004                             : en:Chapter 37
复制代码





                                       
                                       

                                       
                                       
                                       




回复

使用道具 举报

发表于 2020-9-11 21:23:40 | 显示全部楼层
楼主发贴辛苦了,谢谢楼主分享!我觉得蓝光电影网是注册对了!
回复 支持 反对

使用道具 举报

发表于 2020-9-11 23:21:54 | 显示全部楼层
怀旧啊,感谢楼主分享优质资源
回复 支持 反对

使用道具 举报

懒得打字嘛,点击右侧快捷回复 【右侧内容,后台自定义】
您需要登录后才可以回帖 登录 | 立即加入

本版积分规则

现在加入蓝光电影网,注册一个账号
上个主题 下个主题 快速回复 收藏帖子 返回列表 客服中心 搜索

手机版|小黑屋| 蓝光电影网 |网站地图 

Copyright © 2015-2019 Comsenz Inc.  Template by 蓝光电影论坛 All Rights Reserved.

Powered by 蓝光电影网 X3.4

特别声明:本站所有资源均由网上收集而来,版权归原影音公司所有,如果侵犯了你的权益,请通知我们,我们会及时删除侵权内容.

快速回复 返回顶部 返回列表