找回密码

蓝光电影网

查看: 170|回复: 3

[10bit.SDR] 职业枪手 The.Specialists.1969.ITALIAN.2160p.BluRay.x265.10bit.SDR.DTS-HD.MA.2.0-SWTYBLZ 42.87GB

[复制链接]

 成长值: 16065

发表于 2020-9-10 00:58:18 | 显示全部楼层 |阅读模式


◎译  名 职业枪手/Le Specialiste/The Specialists/職業鎗手(港)
◎片  名 Gli specialisti
◎年  代 1969
◎产  地 意大利,法国,西德
◎类  别 西部
◎语  言 意大利语
◎上映日期 1969
◎IMDb评分  6.3/10 from 747 users
◎IMDb链接  https://www.imdb.com/title/tt0065026/
◎豆瓣评分 /10 from 0 users
◎豆瓣链接 https://movie.douban.com/subject/5156643/
◎片  长 104 分钟
◎导  演 赛尔乔·科尔布奇 Sergio Corbucci
◎编  剧 赛尔乔·科尔布奇 Sergio Corbucci
◎主  演 吉诺·佩尔尼切 Gino Pernice
       Riccardo Pizzuti
       雷纳托·平奇罗利 Renato Pinciroli
       加斯通·莫辛 Gastone Moschin
       贝里奇·蒙迪纳罗 Brizio Montinaro
       塞尔日·马康 Serge Marquand
       西尔薇·费内克 Sylvie Fennec
       Pietro Ceccarelli
       马里奥·阿多夫 Mario Adorf
       弗兰西丝·法比安 Fran?oise Fabian
       安吉拉·露西 Angela Luce
       约翰尼·哈里戴 Johnny Hallyday
       Andrés José Cruz Soublette
◎标  签 意大利 | 1969 | 西部 | western | SergioCorbucci | 西德 | 被忽视的片子 | 法国
◎简  介


  暂无相关剧情介绍
  1. Video
  2. ID                                       : 1
  3. Format                                   : HEVC
  4. Format/Info                              : High Efficiency Video Coding
  5. Format profile                           : Main [email protected]@High
  6. Codec ID                                 : V_MPEGH/ISO/HEVC
  7. Duration                                 : 1 h 44 min
  8. Bit rate                                 : 56.0 Mb/s
  9. Width                                    : 3 840 pixels
  10. Height                                   : 1 634 pixels
  11. Display aspect ratio                     : 2.35:1
  12. Frame rate mode                          : Constant
  13. Frame rate                               : 24.000 FPS
  14. Color space                              : YUV
  15. Chroma subsampling                       : 4:2:0
  16. Bit depth                                : 10 bits
  17. Bits/(Pixel*Frame)                       : 0.372
  18. Stream size                              : 40.9 GiB (96%)
  19. Title                                    : The.Specialists.1969.ITALIAN.2160p.BluRay.x265.10bit.SDR.DTS-HD.MA.2.0-SWTYBLZ
  20. Writing library                          : x265 3.0ed72af837053:[Windows][GCC 8.2.0][64 bit] 10bit
  21. Encoding settings                        : cpuid=1111039 / frame-threads=6 / numa-pools=40 / wpp / no-pmode / no-pme / no-psnr / no-ssim / log-level=2 / input-csp=1 / input-res=3840x1634 / interlace=0 / total-frames=150461 / level-idc=51 / high-tier=1 / uhd-bd=0 / ref=3 / no-allow-non-conformance / repeat-headers / annexb / aud / hrd / info / hash=0 / no-temporal-layers / no-open-gop / min-keyint=1 / keyint=24 / gop-lookahead=0 / bframes=4 / b-adapt=2 / b-pyramid / bframe-bias=0 / rc-lookahead=25 / lookahead-slices=4 / scenecut=40 / radl=0 / no-splice / no-intra-refresh / ctu=64 / min-cu-size=8 / no-rect / no-amp / max-tu-size=32 / tu-inter-depth=1 / tu-intra-depth=1 / limit-tu=0 / rdoq-level=0 / dynamic-rd=0.00 / no-ssim-rd / signhide / no-tskip / nr-intra=0 / nr-inter=0 / no-constrained-intra / strong-intra-smoothing / max-merge=2 / limit-refs=3 / no-limit-modes / me=1 / subme=2 / merange=57 / temporal-mvp / weightp / no-weightb / no-analyze-src-pics / deblock=0:0 / no-sao / no-sao-non-deblock / rd=3 / no-early-skip / rskip / no-fast-intra / no-tskip-fast / no-cu-lossless / no-b-intra / no-splitrd-skip / rdpenalty=0 / psy-rd=2.00 / psy-rdoq=0.00 / no-rd-refine / no-lossless / cbqpoffs=0 / crqpoffs=0 / rc=crf / crf=16.0 / qcomp=0.60 / qpstep=4 / stats-write=0 / stats-read=0 / vbv-maxrate=160000 / vbv-bufsize=160000 / vbv-init=0.9 / crf-max=0.0 / crf-min=0.0 / ipratio=1.40 / pbratio=1.30 / aq-mode=1 / aq-strength=1.00 / cutree / zone-count=0 / no-strict-cbr / qg-size=32 / no-rc-grain / qpmax=69 / qpmin=0 / no-const-vbv / sar=1 / overscan=0 / videoformat=5 / range=0 / colorprim=2 / transfer=2 / colormatrix=2 / chromaloc=0 / display-window=0 / max-cll=0,0 / min-luma=0 / max-luma=1023 / log2-max-poc-lsb=8 / vui-timing-info / vui-hrd-info / slices=1 / opt-qp-pps / opt-ref-list-length-pps / no-multi-pass-opt-rps / scenecut-bias=0.05 / no-opt-cu-delta-qp / no-aq-motion / no-hdr / no-hdr-opt / no-dhdr10-opt / no-idr-recovery-sei / analysis-reuse-level=5 / scale-factor=0 / refine-intra=0 / refine-inter=0 / refine-mv=0 / refine-ctu-distortion=0 / no-limit-sao / ctu-info=0 / no-lowpass-dct / refine-analysis-type=0 / copy-pic=1 / max-ausize-factor=1.0 / no-dynamic-refine / no-single-sei / no-hevc-aq / qp-adaptation-range=1.00
  22. Default                                  : Yes
  23. Forced                                   : No
  24. Audio #1
  25. ID                                       : 2
  26. ID in the original source medium         : 4353 (0x1101)
  27. Format                                   : DTS XLL
  28. Format/Info                              : Digital Theater Systems
  29. Commercial name                          : DTS-HD Master Audio
  30. Codec ID                                 : A_DTS
  31. Duration                                 : 1 h 44 min
  32. Bit rate mode                            : Variable
  33. Bit rate                                 : 1 779 kb/s
  34. Channel(s)                               : 2 channels
  35. Channel layout                           : L R
  36. Sampling rate                            : 48.0 kHz
  37. Frame rate                               : 93.750 FPS (512 SPF)
  38. Bit depth                                : 24 bits
  39. Compression mode                         : Lossless
  40. Stream size                              : 1.30 GiB (3%)
  41. Title                                    : The.Specialists.1969.ITALIAN.2160p.BluRay.x265.10bit.SDR.DTS-HD.MA.2.0-SWTYBLZ
  42. Language                                 : Italian
  43. Default                                  : Yes
  44. Forced                                   : No
  45. Original source medium                   : Blu-ray
  46. Audio #2
  47. ID                                       : 3
  48. Format                                   : AC-3
  49. Format/Info                              : Audio Coding 3
  50. Commercial name                          : Dolby Digital
  51. Codec ID                                 : A_AC3
  52. Duration                                 : 1 h 44 min
  53. Bit rate mode                            : Constant
  54. Bit rate                                 : 640 kb/s
  55. Channel(s)                               : 2 channels
  56. Channel layout                           : L R
  57. Sampling rate                            : 48.0 kHz
  58. Frame rate                               : 31.250 FPS (1536 SPF)
  59. Compression mode                         : Lossy
  60. Stream size                              : 478 MiB (1%)
  61. Title                                    : The.Specialists.1969.ITALIAN.2160p.BluRay.x265.10bit.SDR.DTS-HD.MA.2.0-SWTYBLZ
  62. Language                                 : Italian
  63. Service kind                             : Complete Main
  64. Default                                  : No
  65. Forced                                   : No
  66. Text #1
  67. ID                                       : 4
  68. Format                                   : UTF-8
  69. Codec ID                                 : S_TEXT/UTF8
  70. Codec ID/Info                            : UTF-8 Plain Text
  71. Duration                                 : 1 h 44 min
  72. Bit rate                                 : 39 b/s
  73. Count of elements                        : 1151
  74. Stream size                              : 30.1 KiB (0%)
  75. Title                                    : English-SRT
  76. Language                                 : English
  77. Default                                  : Yes
  78. Forced                                   : No
  79. Text #2
  80. ID                                       : 5
  81. ID in the original source medium         : 4608 (0x1200)
  82. Format                                   : PGS
  83. Muxing mode                              : zlib
  84. Codec ID                                 : S_HDMV/PGS
  85. Codec ID/Info                            : Picture based subtitle format used on BDs/HD-DVDs
  86. Duration                                 : 1 s 458 ms
  87. Bit rate                                 : 60.5 kb/s
  88. Count of elements                        : 2
  89. Stream size                              : 10.8 KiB (0%)
  90. Title                                    : French-PGS
  91. Language                                 : French
  92. Default                                  : No
  93. Forced                                   : No
  94. Original source medium                   : Blu-ray
  95. Text #3
  96. ID                                       : 6
  97. ID in the original source medium         : 4609 (0x1201)
  98. Format                                   : PGS
  99. Muxing mode                              : zlib
  100. Codec ID                                 : S_HDMV/PGS
  101. Codec ID/Info                            : Picture based subtitle format used on BDs/HD-DVDs
  102. Duration                                 : 1 h 42 min
  103. Bit rate                                 : 21.9 kb/s
  104. Count of elements                        : 2098
  105. Stream size                              : 16.1 MiB (0%)
  106. Title                                    : French-PGS
  107. Language                                 : French
  108. Default                                  : No
  109. Forced                                   : No
  110. Original source medium                   : Blu-ray
  111. Text #4
  112. ID                                       : 7
  113. ID in the original source medium         : 4610 (0x1202)
  114. Format                                   : PGS
  115. Muxing mode                              : zlib
  116. Codec ID                                 : S_HDMV/PGS
  117. Codec ID/Info                            : Picture based subtitle format used on BDs/HD-DVDs
  118. Duration                                 : 1 h 44 min
  119. Bit rate                                 : 27.5 kb/s
  120. Count of elements                        : 2408
  121. Stream size                              : 20.5 MiB (0%)
  122. Title                                    : French-PGS
  123. Language                                 : French
  124. Default                                  : No
  125. Forced                                   : No
  126. Original source medium                   : Blu-ray
  127. Text #5
  128. ID                                       : 8
  129. ID in the original source medium         : 4611 (0x1203)
  130. Format                                   : PGS
  131. Muxing mode                              : zlib
  132. Codec ID                                 : S_HDMV/PGS
  133. Codec ID/Info                            : Picture based subtitle format used on BDs/HD-DVDs
  134. Duration                                 : 1 h 44 min
  135. Bit rate                                 : 24.7 kb/s
  136. Count of elements                        : 2312
  137. Stream size                              : 18.4 MiB (0%)
  138. Title                                    : English-PGS
  139. Language                                 : English
  140. Default                                  : No
  141. Forced                                   : No
  142. Original source medium                   : Blu-ray
  143. Menu
  144. 00:00:00.000                             : en:Chapter 01
  145. 00:08:25.250                             : en:Chapter 02
  146. 00:16:35.125                             : en:Chapter 03
  147. 00:23:51.458                             : en:Chapter 04
  148. 00:31:20.416                             : en:Chapter 05
  149. 00:42:01.875                             : en:Chapter 06
  150. 00:53:36.083                             : en:Chapter 07
  151. 01:01:30.875                             : en:Chapter 08
  152. 01:09:36.375                             : en:Chapter 09
  153. 01:17:17.166                             : en:Chapter 10
  154. 01:25:27.916                             : en:Chapter 11
  155. 01:34:20.458                             : en:Chapter 12
复制代码




                                       
                                       

                                       
                                       
                                       




回复

使用道具 举报

发表于 2020-9-10 23:20:57 | 显示全部楼层

这东西我收了!谢谢楼主!蓝光电影网真好!
回复 支持 反对

使用道具 举报

发表于 2020-9-11 09:00:01 | 显示全部楼层
楼主发贴辛苦了,谢谢楼主分享!我觉得蓝光电影网是注册对了!
回复 支持 反对

使用道具 举报

已抛锚 成长值: 310

发表于 2020-9-11 20:12:12 | 显示全部楼层
大哥,这个种子资源用115离线,到80就不动了~~~~~
回复 支持 反对

使用道具 举报

懒得打字嘛,点击右侧快捷回复 【右侧内容,后台自定义】
您需要登录后才可以回帖 登录 | 立即加入

本版积分规则

现在加入蓝光电影网,注册一个账号
上个主题 下个主题 快速回复 收藏帖子 返回列表 客服中心 搜索

手机版|小黑屋| 蓝光电影网 |网站地图 

Copyright © 2015-2019 Comsenz Inc.  Template by 蓝光电影论坛 All Rights Reserved.

Powered by 蓝光电影网 X3.4

特别声明:本站所有资源均由网上收集而来,版权归原影音公司所有,如果侵犯了你的权益,请通知我们,我们会及时删除侵权内容.

快速回复 返回顶部 返回列表