找回密码

蓝光电影网

查看: 563|回复: 6

[UHD.HEVC] 毒战 Believer.2018.KOREAN.2160p.BluRay.REMUX.HEVC.DTS-HD.MA.TrueHD.7.1.Atmos-FGT 60.01GB

[复制链接]

 成长值: 16065

发表于 2020-9-8 01:09:06 | 显示全部楼层 |阅读模式


◎译  名 毒战/Believer/Drug War/信徒(台)/毒战寒流(港)/毒战韩国版
◎片  名 ??
◎年  代 2018
◎产  地 韩国
◎类  别 动作 / 犯罪
◎语  言 韩语
◎上映日期 2018-05-22(韩国)
◎IMDb评分  6.5/10 from 1600 users
◎IMDb链接  https://www.imdb.com/title/tt7095654/
◎豆瓣评分 6.6/10 from 15581 users
◎豆瓣链接 https://movie.douban.com/subject/26934399/
◎片  长 123分钟
◎导  演 李海暎 Hae-yeong Lee
◎编  剧 郑瑞景 Seo-Gyeong Jeong / 李海暎 Hae-yeong Lee
◎主  演 赵震雄 Cho Jin-woong
       柳俊烈 Jun-yeol Ryu
       金柱赫 Joo-hyuk Kim
       金成铃 Sung-ryeong Kim
       朴海俊 Hea-jun Park
       车胜元 Seung-won Cha
       郑家蓝 Ga-ram  Jung
       南文哲 Moon-cheol Nam
       徐贤宇 Seo Hyeon-woo
       姜承贤 Seung-hyun Kang
       京熙妍 Seo-yeon Jin
       金东英 Dong-yeong Kim
       李周英 Joo-young Lee
       琴赛璐 Keum Sae-rok
       郑钟宇 Jung Jong-woo
       权度云 Do-woon Kwon
       車淳亨 Soon-hyung Cha
       Tae-joon  Kim
       李智敏 Ji-min Lee
       朴成妍 Seong-yeon Park
       金在炯 Jae-heung Kim
       朴恩荣 Eun-yeong Park
       金泰俊 Tae-joon Kim
       Hyeok-seong Kwon
       姜智贤 Ji-hyun Kang
       尹锡浩 Seok-ho Yoon
       崔英民 Young-min Choi
       郑浚远 Jung Jun-won
       张泰民 Tae-min Jang
◎标  签 韩国 | 犯罪 | 韩国电影 | 翻拍 | 动作 | 2018 | 柳俊烈 | 毒战
◎简  介


  韩国最大规模贩毒组织的神秘BOSS李先生气焰嚣张,他新近通过一起爆炸案除掉了无用的干部,甚至连侥幸逃生的骨干也被害死在警局之中。缉毒组组长赵元浩(赵震雄 饰)从爆炸案现场救出在组织内担任联络工作的徐永乐(柳俊烈 饰),经过审讯得知,徐原本负责与盘踞在中国吉林的毒枭陈河霖(金柱赫 饰)接洽,因提前回国而误卷入组织清洗之中。赵组长将计就计,决定周旋在李先生和陈河霖中间上演双簧,以将贩毒组织连根拔起。这一过程险象环生,危机不断,而真正的李先生却还未显现出他真实的用心……
  
  本片翻拍自杜琪峰的同名原作。
◎获奖情况
  第39届韩国电影青龙奖 ?(2018)
  最佳男配角 金柱赫
  最佳女配角(提名) 京熙妍?/?李周英
  最佳配乐
  
  第13届亚洲电影大奖 ?(2019)
  最佳女配角(提名) 京熙妍
  最佳原创音乐(提名) 达班伦
  
  第55届百想艺术大赏 ?(2019)
  电影类最佳导演(提名) 李海暎
  电影类最佳男配角 金柱赫
  电影类最佳男配角(提名) 朴海俊
  电影类最佳女配角(提名) 京熙妍
  电影类最佳新人女演员(提名) 李周英
  电影类最佳艺术奖(提名)
  
  第55届韩国电影大钟奖 ?(2018)
  最佳男主角(提名) 赵震雄
  最佳男配角 金柱赫
  最佳女配角 京熙妍
  最佳摄影(提名)
  最佳美术(提名)
  最佳音乐(提名) 姜其永
  最佳技术奖(提名)
  1. Video
  2. ID                                       : 1
  3. ID in the original source medium         : 4113 (0x1011)
  4. Format                                   : HEVC
  5. Format/Info                              : High Efficiency Video Coding
  6. Format profile                           : Main [email protected]@High
  7. HDR format                               : SMPTE ST 2086, HDR10 compatible
  8. Codec ID                                 : V_MPEGH/ISO/HEVC
  9. Duration                                 : 2 h 3 min
  10. Bit rate                                 : 61.0 Mb/s
  11. Width                                    : 3 840 pixels
  12. Height                                   : 2 160 pixels
  13. Display aspect ratio                     : 16:9
  14. Frame rate mode                          : Constant
  15. Frame rate                               : 23.976 (24000/1001/189150) FPS
  16. Color space                              : YUV
  17. Chroma subsampling                       : 4:2:0 (Type 2)
  18. Bit depth                                : 10 bits
  19. Bits/(Pixel*Frame)                       : 0.307
  20. Stream size                              : 52.6 GiB (88%)
  21. Title                                    : Believer.2018.KOREAN.2160p.BluRay.REMUX.HEVC.DTS-HD.MA.TrueHD.7.1.Atmos-FGT
  22. Writing library                          : ATEME Titan File 3.9.6 (4.9.6.1)        
  23. Language                                 : English
  24. Default                                  : No
  25. Forced                                   : No
  26. Color range                              : Limited
  27. Color primaries                          : BT.2020
  28. Transfer characteristics                 : PQ
  29. Matrix coefficients                      : BT.2020 non-constant
  30. Mastering display color primaries        : Display P3
  31. Mastering display luminance              : min: 0.0050 cd/m2, max: 1000 cd/m2
  32. Maximum Content Light Level              : 1000 cd/m2
  33. Maximum Frame-Average Light Level        : 300 cd/m2
  34. Original source medium                   : Blu-ray
  35. Audio #1
  36. ID                                       : 2
  37. ID in the original source medium         : 4352 (0x1100)
  38. Format                                   : MLP FBA 16-ch
  39. Format/Info                              : Meridian Lossless Packing FBA with 16-channel presentation
  40. Commercial name                          : Dolby TrueHD with Dolby Atmos
  41. Codec ID                                 : A_TRUEHD
  42. Duration                                 : 2 h 3 min
  43. Bit rate mode                            : Variable
  44. Bit rate                                 : 3 798 kb/s
  45. Maximum bit rate                         : 6 825 kb/s
  46. Channel(s)                               : 8 channels
  47. Channel layout                           : L R C LFE Ls Rs Lb Rb
  48. Sampling rate                            : 48.0 kHz
  49. Frame rate                               : 1 200.000 FPS (40 SPF)
  50. Compression mode                         : Lossless
  51. Stream size                              : 3.27 GiB (5%)
  52. Title                                    : Believer.2018.KOREAN.2160p.BluRay.REMUX.HEVC.DTS-HD.MA.TrueHD.7.1.Atmos-FGT
  53. Language                                 : Korean
  54. Default                                  : Yes
  55. Forced                                   : No
  56. Original source medium                   : Blu-ray
  57. Number of dynamic objects                : 11
  58. Bed channel count                        : 1 channel
  59. Bed channel configuration                : LFE
  60. Audio #2
  61. ID                                       : 3
  62. ID in the original source medium         : 4353 (0x1101)
  63. Format                                   : DTS XLL X
  64. Format/Info                              : Digital Theater Systems
  65. Commercial name                          : DTS-HD Master Audio
  66. Codec ID                                 : A_DTS
  67. Duration                                 : 2 h 3 min
  68. Bit rate mode                            : Variable
  69. Bit rate                                 : 3 678 kb/s
  70. Channel(s)                               : 8 channels
  71. Channel(s)_Original                      : Object Based
  72. ChannelLayout_Original                   : Object Based
  73. Sampling rate                            : 48.0 kHz
  74. Frame rate                               : 93.750 FPS (512 SPF)
  75. Bit depth                                : 24 bits
  76. Stream size                              : 3.17 GiB (5%)
  77. Title                                    : Believer.2018.KOREAN.2160p.BluRay.REMUX.HEVC.DTS-HD.MA.TrueHD.7.1.Atmos-FGT
  78. Language                                 : Korean
  79. Default                                  : No
  80. Forced                                   : No
  81. Original source medium                   : Blu-ray
  82. Audio #3
  83. ID                                       : 4
  84. ID in the original source medium         : 4352 (0x1100)
  85. Format                                   : AC-3
  86. Format/Info                              : Audio Coding 3
  87. Commercial name                          : Dolby Digital
  88. Codec ID                                 : A_AC3
  89. Duration                                 : 2 h 3 min
  90. Bit rate mode                            : Constant
  91. Bit rate                                 : 640 kb/s
  92. Channel(s)                               : 6 channels
  93. Channel layout                           : L R C LFE Ls Rs
  94. Sampling rate                            : 48.0 kHz
  95. Frame rate                               : 31.250 FPS (1536 SPF)
  96. Compression mode                         : Lossy
  97. Stream size                              : 565 MiB (1%)
  98. Title                                    : Believer.2018.KOREAN.2160p.BluRay.REMUX.HEVC.DTS-HD.MA.TrueHD.7.1.Atmos-FGT
  99. Language                                 : Korean
  100. Service kind                             : Complete Main
  101. Default                                  : No
  102. Forced                                   : No
  103. Original source medium                   : Blu-ray
  104. Audio #4
  105. ID                                       : 5
  106. ID in the original source medium         : 4354 (0x1102)
  107. Format                                   : AC-3
  108. Format/Info                              : Audio Coding 3
  109. Commercial name                          : Dolby Digital
  110. Codec ID                                 : A_AC3
  111. Duration                                 : 2 h 3 min
  112. Bit rate mode                            : Constant
  113. Bit rate                                 : 192 kb/s
  114. Channel(s)                               : 2 channels
  115. Channel layout                           : L R
  116. Sampling rate                            : 48.0 kHz
  117. Frame rate                               : 31.250 FPS (1536 SPF)
  118. Compression mode                         : Lossy
  119. Stream size                              : 170 MiB (0%)
  120. Title                                    : Believer.2018.KOREAN.2160p.BluRay.REMUX.HEVC.DTS-HD.MA.TrueHD.7.1.Atmos-FGT
  121. Language                                 : Korean
  122. Service kind                             : Commentary
  123. Default                                  : No
  124. Forced                                   : No
  125. Original source medium                   : Blu-ray
  126. Audio #5
  127. ID                                       : 6
  128. ID in the original source medium         : 4355 (0x1103)
  129. Format                                   : AC-3
  130. Format/Info                              : Audio Coding 3
  131. Commercial name                          : Dolby Digital
  132. Codec ID                                 : A_AC3
  133. Duration                                 : 2 h 3 min
  134. Bit rate mode                            : Constant
  135. Bit rate                                 : 192 kb/s
  136. Channel(s)                               : 2 channels
  137. Channel layout                           : L R
  138. Sampling rate                            : 48.0 kHz
  139. Frame rate                               : 31.250 FPS (1536 SPF)
  140. Compression mode                         : Lossy
  141. Stream size                              : 170 MiB (0%)
  142. Title                                    : Believer.2018.KOREAN.2160p.BluRay.REMUX.HEVC.DTS-HD.MA.TrueHD.7.1.Atmos-FGT
  143. Language                                 : Korean
  144. Service kind                             : Commentary
  145. Default                                  : No
  146. Forced                                   : No
  147. Original source medium                   : Blu-ray
  148. Text #1
  149. ID                                       : 7
  150. Format                                   : UTF-8
  151. Codec ID                                 : S_TEXT/UTF8
  152. Codec ID/Info                            : UTF-8 Plain Text
  153. Duration                                 : 1 h 57 min
  154. Bit rate                                 : 36 b/s
  155. Count of elements                        : 1154
  156. Stream size                              : 31.8 KiB (0%)
  157. Title                                    : English-SRT
  158. Language                                 : English
  159. Default                                  : Yes
  160. Forced                                   : No
  161. Text #2
  162. ID                                       : 8
  163. ID in the original source medium         : 4768 (0x12A0)
  164. Format                                   : PGS
  165. Muxing mode                              : zlib
  166. Codec ID                                 : S_HDMV/PGS
  167. Codec ID/Info                            : Picture based subtitle format used on BDs/HD-DVDs
  168. Duration                                 : 1 h 54 min
  169. Bit rate                                 : 25.3 kb/s
  170. Count of elements                        : 2270
  171. Stream size                              : 20.7 MiB (0%)
  172. Title                                    : Korean-PGS
  173. Language                                 : Korean
  174. Default                                  : No
  175. Forced                                   : No
  176. Original source medium                   : Blu-ray
  177. Text #3
  178. ID                                       : 9
  179. ID in the original source medium         : 4769 (0x12A1)
  180. Format                                   : PGS
  181. Muxing mode                              : zlib
  182. Codec ID                                 : S_HDMV/PGS
  183. Codec ID/Info                            : Picture based subtitle format used on BDs/HD-DVDs
  184. Duration                                 : 1 h 57 min
  185. Bit rate                                 : 24.2 kb/s
  186. Count of elements                        : 2310
  187. Stream size                              : 20.3 MiB (0%)
  188. Title                                    : English-PGS
  189. Language                                 : English
  190. Default                                  : No
  191. Forced                                   : No
  192. Original source medium                   : Blu-ray
  193. Menu
  194. 00:00:00.000                             : en:Chapter 01
  195. 00:07:13.891                             : en:Chapter 02
  196. 00:16:30.447                             : en:Chapter 03
  197. 00:26:24.416                             : en:Chapter 04
  198. 00:38:17.336                             : en:Chapter 05
  199. 00:50:38.618                             : en:Chapter 06
  200. 01:01:25.515                             : en:Chapter 07
  201. 01:11:35.874                             : en:Chapter 08
  202. 01:25:12.190                             : en:Chapter 09
  203. 01:37:58.873                             : en:Chapter 10
  204. 01:50:57.025                             : en:Chapter 11
  205. 01:58:43.157                             : en:Chapter 12
复制代码



                                       
                                       

                                       
                                       
                                       




回复

使用道具 举报

发表于 2020-9-8 20:19:35 | 显示全部楼层
楼主发贴辛苦了,谢谢楼主分享!我觉得蓝光电影网是注册对了!
回复 支持 反对

使用道具 举报

发表于 2020-9-8 21:23:08 | 显示全部楼层
楼主发贴辛苦了,谢谢楼主分享!我觉得蓝光电影网是注册对了!
回复 支持 反对

使用道具 举报

已抛锚 成长值: 310

发表于 2020-9-9 12:45:07 | 显示全部楼层
楼主发贴辛苦了,谢谢楼主分享!我觉得蓝光电影网是注册对了!
回复 支持 反对

使用道具 举报

发表于 2020-9-9 20:59:57 | 显示全部楼层

这东西我收了!谢谢楼主!蓝光电影网真好!
回复 支持 反对

使用道具 举报

发表于 2020-9-11 00:18:54 | 显示全部楼层
楼主发贴辛苦了,谢谢楼主分享!我觉得蓝光电影网是注册对了!
回复 支持 反对

使用道具 举报

发表于 2020-9-11 10:02:13 | 显示全部楼层

感谢楼主的无私分享!要想蓝光电影网好 就靠你我他
回复 支持 反对

使用道具 举报

懒得打字嘛,点击右侧快捷回复 【右侧内容,后台自定义】
您需要登录后才可以回帖 登录 | 立即加入

本版积分规则

现在加入蓝光电影网,注册一个账号
上个主题 下个主题 快速回复 收藏帖子 返回列表 客服中心 搜索

手机版|小黑屋| 蓝光电影网 |网站地图 

Copyright © 2015-2019 Comsenz Inc.  Template by 蓝光电影论坛 All Rights Reserved.

Powered by 蓝光电影网 X3.4

特别声明:本站所有资源均由网上收集而来,版权归原影音公司所有,如果侵犯了你的权益,请通知我们,我们会及时删除侵权内容.

快速回复 返回顶部 返回列表