找回密码

蓝光电影网

查看: 336|回复: 8

[REMUX.HEVC] 南太平洋之旅 Journey.to.the.South.Pacific.2013.DOCU.2160p.BluRay.REMUX.HEVC.DTS-X.7.1-FGT 20.07GB

[复制链接]

 成长值: 16065

发表于 2020-9-8 01:08:32 | 显示全部楼层 |阅读模式


◎译  名 南太平洋之旅
◎片  名 Journey to the South Pacific
◎年  代 2013
◎产  地 美国
◎类  别 纪录片
◎语  言 英语
◎上映日期 2013-11-27
◎IMDb评分  6.4/10 from 170 users
◎IMDb链接  https://www.imdb.com/title/tt3195742/
◎豆瓣评分 8.3/10 from 256 users
◎豆瓣链接 https://movie.douban.com/subject/25753342/
◎片  长 40分钟
◎导  演 格雷戈·迈吉里弗雷 Greg MacGillivray
◎主  演 凯特·布兰切特 Cate Blanchett
◎标  签 纪录片 | 海洋 | 美国 | CateBlanchett | IMAX | 自然纪录片 | 自然 | 短片
◎简  介


  凯特·布兰切特担任影片旁白,带领观众把视野扩展到遥远的西巴布亚热带岛屿,饱览洋面上和洋面下的生命。
  1. Video
  2. ID                                       : 1
  3. ID in the original source medium         : 4113 (0x1011)
  4. Format                                   : HEVC
  5. Format/Info                              : High Efficiency Video Coding
  6. Format profile                           : Main [email protected]@High
  7. HDR format                               : SMPTE ST 2094 App 4, Version 1, HDR10+ Profile A compatible
  8. Codec ID                                 : V_MPEGH/ISO/HEVC
  9. Duration                                 : 39 min 47 s
  10. Bit rate                                 : 57.7 Mb/s
  11. Width                                    : 3 840 pixels
  12. Height                                   : 2 160 pixels
  13. Display aspect ratio                     : 16:9
  14. Frame rate mode                          : Constant
  15. Frame rate                               : 23.976 (24000/1001/189150) FPS
  16. Color space                              : YUV
  17. Chroma subsampling                       : 4:2:0 (Type 2)
  18. Bit depth                                : 10 bits
  19. Bits/(Pixel*Frame)                       : 0.290
  20. Stream size                              : 16.0 GiB (80%)
  21. Title                                    : Journey.to.the.South.Pacific.2013.DOCU.2160p.BluRay.REMUX.HEVC.DTS-X.7.1-FGT
  22. Language                                 : English
  23. Default                                  : No
  24. Forced                                   : No
  25. Color range                              : Limited
  26. Color primaries                          : BT.2020
  27. Transfer characteristics                 : PQ
  28. Matrix coefficients                      : BT.2020 non-constant
  29. Mastering display color primaries        : BT.2020
  30. Mastering display luminance              : min: 0.0000 cd/m2, max: 1000 cd/m2
  31. Maximum Content Light Level              : 1377 cd/m2
  32. Maximum Frame-Average Light Level        : 200 cd/m2
  33. Original source medium                   : Blu-ray
  34. Audio #1
  35. ID                                       : 2
  36. ID in the original source medium         : 4352 (0x1100)
  37. Format                                   : DTS XLL
  38. Format/Info                              : Digital Theater Systems
  39. Commercial name                          : DTS-HD Master Audio
  40. Codec ID                                 : A_DTS
  41. Duration                                 : 39 min 47 s
  42. Bit rate mode                            : Variable
  43. Bit rate                                 : 7 847 kb/s
  44. Channel(s)                               : 8 channels
  45. Channel layout                           : C L R LFE Lb Rb Lss Rss
  46. Sampling rate                            : 48.0 kHz
  47. Frame rate                               : 93.750 FPS (512 SPF)
  48. Bit depth                                : 24 bits
  49. Compression mode                         : Lossless
  50. Stream size                              : 2.18 GiB (11%)
  51. Title                                    : Journey.to.the.South.Pacific.2013.DOCU.2160p.BluRay.REMUX.HEVC.DTS-X.7.1-FGT
  52. Language                                 : English
  53. Default                                  : Yes
  54. Forced                                   : No
  55. Original source medium                   : Blu-ray
  56. Audio #2
  57. ID                                       : 3
  58. ID in the original source medium         : 4353 (0x1101)
  59. Format                                   : DTS XLL
  60. Format/Info                              : Digital Theater Systems
  61. Commercial name                          : DTS-HD Master Audio
  62. Codec ID                                 : A_DTS
  63. Duration                                 : 39 min 47 s
  64. Bit rate mode                            : Variable
  65. Bit rate                                 : 2 451 kb/s
  66. Channel(s)                               : 6 channels
  67. Channel layout                           : C L R Ls Rs LFE
  68. Sampling rate                            : 48.0 kHz
  69. Frame rate                               : 93.750 FPS (512 SPF)
  70. Bit depth                                : 24 bits
  71. Compression mode                         : Lossless
  72. Stream size                              : 698 MiB (3%)
  73. Title                                    : Journey.to.the.South.Pacific.2013.DOCU.2160p.BluRay.REMUX.HEVC.DTS-X.7.1-FGT
  74. Language                                 : French
  75. Default                                  : No
  76. Forced                                   : No
  77. Original source medium                   : Blu-ray
  78. Audio #3
  79. ID                                       : 4
  80. ID in the original source medium         : 4354 (0x1102)
  81. Format                                   : DTS XLL
  82. Format/Info                              : Digital Theater Systems
  83. Commercial name                          : DTS-HD Master Audio
  84. Codec ID                                 : A_DTS
  85. Duration                                 : 39 min 47 s
  86. Bit rate mode                            : Variable
  87. Bit rate                                 : 4 154 kb/s
  88. Channel(s)                               : 8 channels
  89. Channel layout                           : C L R LFE Lb Rb Lss Rss
  90. Sampling rate                            : 48.0 kHz
  91. Frame rate                               : 93.750 FPS (512 SPF)
  92. Bit depth                                : 24 bits
  93. Compression mode                         : Lossless
  94. Stream size                              : 1.15 GiB (6%)
  95. Title                                    : Journey.to.the.South.Pacific.2013.DOCU.2160p.BluRay.REMUX.HEVC.DTS-X.7.1-FGT
  96. Language                                 : Spanish
  97. Default                                  : No
  98. Forced                                   : No
  99. Original source medium                   : Blu-ray
  100. Text #1
  101. ID                                       : 5
  102. Format                                   : UTF-8
  103. Codec ID                                 : S_TEXT/UTF8
  104. Codec ID/Info                            : UTF-8 Plain Text
  105. Duration                                 : 37 min 37 s
  106. Bit rate                                 : 34 b/s
  107. Count of elements                        : 275
  108. Stream size                              : 9.46 KiB (0%)
  109. Title                                    : English-SRT
  110. Language                                 : English
  111. Default                                  : Yes
  112. Forced                                   : No
  113. Text #2
  114. ID                                       : 6
  115. ID in the original source medium         : 4768 (0x12A0)
  116. Format                                   : PGS
  117. Muxing mode                              : zlib
  118. Codec ID                                 : S_HDMV/PGS
  119. Codec ID/Info                            : Picture based subtitle format used on BDs/HD-DVDs
  120. Duration                                 : 38 min 56 s
  121. Bit rate                                 : 18.9 kb/s
  122. Count of elements                        : 657
  123. Stream size                              : 5.27 MiB (0%)
  124. Title                                    : English-PGS
  125. Language                                 : English
  126. Default                                  : No
  127. Forced                                   : No
  128. Original source medium                   : Blu-ray
  129. Text #3
  130. ID                                       : 7
  131. ID in the original source medium         : 4769 (0x12A1)
  132. Format                                   : PGS
  133. Muxing mode                              : zlib
  134. Codec ID                                 : S_HDMV/PGS
  135. Codec ID/Info                            : Picture based subtitle format used on BDs/HD-DVDs
  136. Duration                                 : 37 min 37 s
  137. Bit rate                                 : 18.8 kb/s
  138. Count of elements                        : 552
  139. Stream size                              : 5.05 MiB (0%)
  140. Title                                    : French-PGS
  141. Language                                 : French
  142. Default                                  : No
  143. Forced                                   : No
  144. Original source medium                   : Blu-ray
  145. Text #4
  146. ID                                       : 8
  147. ID in the original source medium         : 4770 (0x12A2)
  148. Format                                   : PGS
  149. Muxing mode                              : zlib
  150. Codec ID                                 : S_HDMV/PGS
  151. Codec ID/Info                            : Picture based subtitle format used on BDs/HD-DVDs
  152. Duration                                 : 37 min 37 s
  153. Bit rate                                 : 19.2 kb/s
  154. Count of elements                        : 552
  155. Stream size                              : 5.17 MiB (0%)
  156. Title                                    : Spanish-PGS
  157. Language                                 : Spanish
  158. Default                                  : No
  159. Forced                                   : No
  160. Original source medium                   : Blu-ray
  161. Menu
  162. 00:00:00.000                             : en:Chapter 01
  163. 00:04:31.271                             : en:Chapter 02
  164. 00:11:37.655                             : en:Chapter 03
  165. 00:18:39.827                             : en:Chapter 04
  166. 00:25:59.307                             : en:Chapter 05
  167. 00:38:57.001                             : en:Chapter 06
复制代码



                                       
                                       

                                       
                                       
                                       




回复

使用道具 举报

 成长值: 4735

发表于 2020-9-8 17:02:20 | 显示全部楼层
谢谢楼主无私分享。
回复 支持 反对

使用道具 举报

发表于 2020-9-9 10:47:38 | 显示全部楼层
    进来看看,哈哈哈
回复 支持 反对

使用道具 举报

发表于 2020-9-9 18:12:24 | 显示全部楼层
楼主发贴辛苦了,谢谢楼主分享!我觉得蓝光电影网是注册对了!
回复 支持 反对

使用道具 举报

发表于 2020-9-10 20:17:13 | 显示全部楼层
感谢分享!
回复

使用道具 举报

发表于 2020-9-10 21:20:58 | 显示全部楼层

这东西我收了!谢谢楼主!蓝光电影网真好!
回复 支持 反对

使用道具 举报

发表于 2020-9-11 00:50:59 | 显示全部楼层
楼主发贴辛苦了,谢谢楼主分享!我觉得蓝光电影网是注册对了!
回复 支持 反对

使用道具 举报

发表于 2020-9-11 20:12:05 | 显示全部楼层
楼主发贴辛苦了,谢谢楼主分享!我觉得蓝光电影网是注册对了!
回复 支持 反对

使用道具 举报

发表于 2020-9-12 10:35:46 | 显示全部楼层

我看不错噢 谢谢楼主!蓝光电影网越来越好!
回复 支持 反对

使用道具 举报

懒得打字嘛,点击右侧快捷回复 【右侧内容,后台自定义】
您需要登录后才可以回帖 登录 | 立即加入

本版积分规则

现在加入蓝光电影网,注册一个账号
上个主题 下个主题 快速回复 收藏帖子 返回列表 客服中心 搜索

手机版|小黑屋| 蓝光电影网 |网站地图 

Copyright © 2015-2019 Comsenz Inc.  Template by 蓝光电影论坛 All Rights Reserved.

Powered by 蓝光电影网 X3.4

特别声明:本站所有资源均由网上收集而来,版权归原影音公司所有,如果侵犯了你的权益,请通知我们,我们会及时删除侵权内容.

快速回复 返回顶部 返回列表