找回密码

蓝光电影网

查看: 6096|回复: 141

[2160p-WEB] 花木兰/木兰传说 Mulan.2020.2160p.DSNP.WEBRip.x265.10bit.HDR.DDP5.1.Atmos-SEMANTiCS 11.14GB

  [复制链接]

 成长值: 16050

发表于 2020-9-8 01:05:28 | 显示全部楼层 |阅读模式
花木兰/木兰传说 Mulan.2020.2160p.DSNP.WEBRip.x265.10bit.HDR.DDP5.1.Atmos-SEMANTiCS 11.14GB-1.jpeg

◎译  名 花木兰/木兰传说/花木兰真人版/迪士尼真人版花木兰
◎片  名 Mulan
◎年  代 2020
◎产  地 美国,中国大陆
◎类  别 剧情 / 动作 / 冒险 / 古装
◎语  言 英语,汉语普通话
◎上映日期 2020-09-04(美国网络) / 2020-09-11(中国大陆)
◎IMDb评分  5.6/10 from 18476 users
◎IMDb链接  https://www.imdb.com/title/tt4566758/
◎豆瓣评分 4.8/10 from 51474 users
◎豆瓣链接 https://movie.douban.com/subject/26357307/
◎片  长 115分钟
◎导  演 妮琪·卡罗 Niki Caro
◎编  剧 劳伦·希内克 Lauren Hynek / 里克·杰法 Rick Jaffa / 伊丽莎白·马丁 Elizabeth Martin / 阿曼达·斯尔沃 Amanda Silver
◎主  演 刘亦菲 Yifei Liu
       甄子丹 Donnie Yen
       巩俐 Li Gong
       李连杰 Jet Li
       李截 Jason Scott Lee
       安柚鑫 Yoson An
       马泰 Tzi Ma
       赵家玲 Rosalind Chao
       郑佩佩 Pei-pei Cheng
       温明娜 Ming-Na Wen
       曾晓童 Xana Tang
       袁文忠 Ron Yuan
       唐辰瀛 Chen Tang
       道阿·茂阿 Doua Moua
       黄谷悦 Jimmy Wong
       尼尔森·李 Nelson Lee
       李勋 Hoon Lee
       饶雪晶 Crystal Rao
       袁之正 Roger Yuan
       仁成外桥 Jen Sung Outerbridge
       加里·扬 Gary Young
       欧文·邝 Owen Kwong
       乌特卡什·安邦德卡尔 Utkarsh Ambudkar
       钱姆·艾希勒珀拉 Chum Ehelepola
       大卫·T·林 David T·Lim
       Jenson Cheng
◎标  签 刘亦菲 | 花木兰 | 迪士尼 | 真人版 | Disney | 美国 | 电影 | 古装
◎简  介


  在古代中国,一位年轻的女子为了救她的父亲假扮成男装代父从军。在穿越中国广袤土地的壮丽征程中,她从紧张的训练和战争中存活下来,发现自己内心的战士,并且最终从外族侵略者手中救回了皇帝和她的祖国。。
  
  刘亦菲饰演花木兰,Yoson An饰演花木兰恋人,李连杰饰演皇帝,巩俐饰演反派女巫,越南华裔女Xana Tang饰演花木兰的姐妹,甄子丹饰演花木兰的导师tung。
◎获奖情况
  第6届豆瓣电影年度榜单 ?(2019)
  最值得期待的外语电影(提名)
  1. Video
  2. ID                                       : 1
  3. Format                                   : HEVC
  4. Format/Info                              : High Efficiency Video Coding
  5. Format profile                           : Main [email protected]@High
  6. HDR format                               : SMPTE ST 2086, HDR10 compatible
  7. Codec ID                                 : V_MPEGH/ISO/HEVC
  8. Duration                                 : 1 h 54 min
  9. Bit rate                                 : 13.1 Mb/s
  10. Width                                    : 3 840 pixels
  11. Height                                   : 1 608 pixels
  12. Display aspect ratio                     : 2.40:1
  13. Frame rate mode                          : Constant
  14. Frame rate                               : 23.976 (24000/1001/189150) FPS
  15. Color space                              : YUV
  16. Chroma subsampling                       : 4:2:0 (Type 2)
  17. Bit depth                                : 10 bits
  18. Bits/(Pixel*Frame)                       : 0.088
  19. Stream size                              : 10.5 GiB (94%)
  20. Writing library                          : x265 3.4g73f96ff39:[Windows][GCC 11.0.0][64 bit] 10bit
  21. Encoding settings                        : cpuid=1111039 / frame-threads=4 / numa-pools=28 / wpp / no-pmode / no-pme / no-psnr / no-ssim / log-level=2 / input-csp=1 / input-res=3840x1608 / interlace=0 / total-frames=821 / level-idc=51 / high-tier=1 / uhd-bd=0 / ref=4 / no-allow-non-conformance / repeat-headers / annexb / aud / hrd / info / hash=0 / no-temporal-layers / no-open-gop / min-keyint=23 / keyint=250 / gop-lookahead=0 / bframes=4 / b-adapt=2 / b-pyramid / bframe-bias=0 / rc-lookahead=25 / lookahead-slices=4 / scenecut=40 / hist-scenecut=0 / radl=0 / no-splice / no-intra-refresh / ctu=64 / min-cu-size=8 / rect / no-amp / max-tu-size=32 / tu-inter-depth=1 / tu-intra-depth=1 / limit-tu=0 / rdoq-level=2 / dynamic-rd=0.00 / no-ssim-rd / signhide / no-tskip / nr-intra=0 / nr-inter=0 / no-constrained-intra / no-strong-intra-smoothing / max-merge=3 / limit-refs=3 / limit-modes / me=3 / subme=3 / merange=57 / temporal-mvp / no-frame-dup / no-hme / weightp / no-weightb / no-analyze-src-pics / deblock=-2:-2 / no-sao / no-sao-non-deblock / rd=4 / selective-sao=0 / no-early-skip / rskip / no-fast-intra / no-tskip-fast / no-cu-lossless / no-b-intra / no-splitrd-skip / rdpenalty=0 / psy-rd=2.00 / psy-rdoq=1.00 / no-rd-refine / no-lossless / cbqpoffs=0 / crqpoffs=0 / rc=crf / crf=14.0 / qcomp=0.60 / qpstep=4 / stats-write=0 / stats-read=0 / vbv-maxrate=160000 / vbv-bufsize=160000 / vbv-init=0.9 / crf-max=0.0 / crf-min=0.0 / ipratio=1.40 / pbratio=1.30 / aq-mode=2 / aq-strength=1.00 / cutree / zone-count=0 / no-strict-cbr / qg-size=32 / no-rc-grain / qpmax=69 / qpmin=0 / no-const-vbv / sar=0 / overscan=0 / videoformat=5 / range=0 / colorprim=9 / transfer=16 / colormatrix=9 / chromaloc=1 / chromaloc-top=2 / chromaloc-bottom=2 / display-window=0 / master-display=G(13250,34500)B(7500,3000)R(34000,16000)WP(15635,16450)L(10000000,0) / cll=0,0 / min-luma=0 / max-luma=1023 / log2-max-poc-lsb=8 / vui-timing-info / vui-hrd-info / slices=1 / no-opt-qp-pps / no-opt-ref-list-length-pps / no-multi-pass-opt-rps / scenecut-bias=0.05 / hist-threshold=0.01 / no-opt-cu-delta-qp / no-aq-motion / hdr10 / hdr10-opt / no-dhdr10-opt / no-idr-recovery-sei / analysis-reuse-level=0 / analysis-save-reuse-level=0 / analysis-load-reuse-level=0 / scale-factor=0 / refine-intra=0 / refine-inter=0 / refine-mv=1 / refine-ctu-distortion=0 / no-limit-sao / ctu-info=0 / no-lowpass-dct / refine-analysis-type=0 / copy-pic=1 / max-ausize-factor=1.0 / no-dynamic-refine / no-single-sei / no-hevc-aq / no-svt / no-field / qp-adaptation-range=1.00 / no-scenecut-aware-qpconformance-window-offsets / right=0 / bottom=0 / decoder-max-rate=0
  22. Default                                  : Yes
  23. Forced                                   : No
  24. Color range                              : Limited
  25. Color primaries                          : BT.2020
  26. Transfer characteristics                 : PQ
  27. Matrix coefficients                      : BT.2020 non-constant
  28. Mastering display color primaries        : Display P3
  29. Mastering display luminance              : min: 0.0000 cd/m2, max: 1000 cd/m2
  30. Audio
  31. ID                                       : 2
  32. Format                                   : E-AC-3 JOC
  33. Format/Info                              : Enhanced AC-3 with Joint Object Coding
  34. Commercial name                          : Dolby Digital Plus with Dolby Atmos
  35. Codec ID                                 : A_EAC3
  36. Duration                                 : 1 h 54 min
  37. Bit rate mode                            : Constant
  38. Bit rate                                 : 768 kb/s
  39. Channel(s)                               : 6 channels
  40. Channel layout                           : L R C LFE Ls Rs
  41. Sampling rate                            : 48.0 kHz
  42. Frame rate                               : 31.250 FPS (1536 SPF)
  43. Compression mode                         : Lossy
  44. Stream size                              : 632 MiB (6%)
  45. Language                                 : English
  46. Service kind                             : Complete Main
  47. Default                                  : Yes
  48. Forced                                   : No
  49. Complexity index                         : 16
  50. Number of dynamic objects                : 15
  51. Bed channel count                        : 1 channel
  52. Bed channel configuration                : LFE
  53. Text #1
  54. ID                                       : 3
  55. Format                                   : UTF-8
  56. Codec ID                                 : S_TEXT/UTF8
  57. Codec ID/Info                            : UTF-8 Plain Text
  58. Duration                                 : 1 h 50 min
  59. Bit rate                                 : 30 b/s
  60. Count of elements                        : 926
  61. Stream size                              : 24.8 KiB (0%)
  62. Title                                    : English
  63. Language                                 : English
  64. Default                                  : No
  65. Forced                                   : No
  66. Text #2
  67. ID                                       : 4
  68. Format                                   : UTF-8
  69. Codec ID                                 : S_TEXT/UTF8
  70. Codec ID/Info                            : UTF-8 Plain Text
  71. Duration                                 : 1 h 50 min
  72. Bit rate                                 : 36 b/s
  73. Count of elements                        : 1150
  74. Stream size                              : 29.5 KiB (0%)
  75. Title                                    : English [SDH]
  76. Language                                 : English
  77. Default                                  : No
  78. Forced                                   : No
  79. Text #3
  80. ID                                       : 5
  81. Format                                   : UTF-8
  82. Codec ID                                 : S_TEXT/UTF8
  83. Codec ID/Info                            : UTF-8 Plain Text
  84. Duration                                 : 1 h 54 min
  85. Bit rate                                 : 26 b/s
  86. Count of elements                        : 632
  87. Stream size                              : 21.8 KiB (0%)
  88. Title                                    : Danish
  89. Language                                 : Danish
  90. Default                                  : No
  91. Forced                                   : No
  92. Text #4
  93. ID                                       : 6
  94. Format                                   : UTF-8
  95. Codec ID                                 : S_TEXT/UTF8
  96. Codec ID/Info                            : UTF-8 Plain Text
  97. Duration                                 : 1 h 54 min
  98. Bit rate                                 : 25 b/s
  99. Count of elements                        : 699
  100. Stream size                              : 21.0 KiB (0%)
  101. Title                                    : Dutch
  102. Language                                 : Dutch
  103. Default                                  : No
  104. Forced                                   : No
  105. Text #5
  106. ID                                       : 7
  107. Format                                   : UTF-8
  108. Codec ID                                 : S_TEXT/UTF8
  109. Codec ID/Info                            : UTF-8 Plain Text
  110. Duration                                 : 1 h 54 min
  111. Bit rate                                 : 27 b/s
  112. Count of elements                        : 785
  113. Stream size                              : 22.8 KiB (0%)
  114. Title                                    : Finnish
  115. Language                                 : Finnish
  116. Default                                  : No
  117. Forced                                   : No
  118. Text #6
  119. ID                                       : 8
  120. Format                                   : UTF-8
  121. Codec ID                                 : S_TEXT/UTF8
  122. Codec ID/Info                            : UTF-8 Plain Text
  123. Duration                                 : 1 h 54 min
  124. Bit rate                                 : 28 b/s
  125. Count of elements                        : 771
  126. Stream size                              : 24.1 KiB (0%)
  127. Title                                    : French
  128. Language                                 : French
  129. Default                                  : No
  130. Forced                                   : No
  131. Text #7
  132. ID                                       : 9
  133. Format                                   : UTF-8
  134. Codec ID                                 : S_TEXT/UTF8
  135. Codec ID/Info                            : UTF-8 Plain Text
  136. Duration                                 : 1 h 54 min
  137. Bit rate                                 : 29 b/s
  138. Count of elements                        : 806
  139. Stream size                              : 25.0 KiB (0%)
  140. Title                                    : Canadian French
  141. Language                                 : French
  142. Default                                  : No
  143. Forced                                   : No
  144. Text #8
  145. ID                                       : 10
  146. Format                                   : UTF-8
  147. Codec ID                                 : S_TEXT/UTF8
  148. Codec ID/Info                            : UTF-8 Plain Text
  149. Duration                                 : 1 h 54 min
  150. Bit rate                                 : 27 b/s
  151. Count of elements                        : 933
  152. Stream size                              : 23.3 KiB (0%)
  153. Title                                    : German
  154. Language                                 : German
  155. Default                                  : No
  156. Forced                                   : No
  157. Text #9
  158. ID                                       : 11
  159. Format                                   : UTF-8
  160. Codec ID                                 : S_TEXT/UTF8
  161. Codec ID/Info                            : UTF-8 Plain Text
  162. Duration                                 : 1 h 54 min
  163. Bit rate                                 : 28 b/s
  164. Count of elements                        : 784
  165. Stream size                              : 23.5 KiB (0%)
  166. Title                                    : Italian
  167. Language                                 : Italian
  168. Default                                  : No
  169. Forced                                   : No
  170. Text #10
  171. ID                                       : 12
  172. Format                                   : UTF-8
  173. Codec ID                                 : S_TEXT/UTF8
  174. Codec ID/Info                            : UTF-8 Plain Text
  175. Duration                                 : 1 h 54 min
  176. Bit rate                                 : 26 b/s
  177. Count of elements                        : 784
  178. Stream size                              : 21.8 KiB (0%)
  179. Title                                    : Norwegian
  180. Language                                 : Norwegian
  181. Default                                  : No
  182. Forced                                   : No
  183. Text #11
  184. ID                                       : 13
  185. Format                                   : UTF-8
  186. Codec ID                                 : S_TEXT/UTF8
  187. Codec ID/Info                            : UTF-8 Plain Text
  188. Duration                                 : 1 h 54 min
  189. Bit rate                                 : 28 b/s
  190. Count of elements                        : 785
  191. Stream size                              : 23.5 KiB (0%)
  192. Title                                    : Portuguese
  193. Language                                 : Portuguese
  194. Default                                  : No
  195. Forced                                   : No
  196. Text #12
  197. ID                                       : 14
  198. Format                                   : UTF-8
  199. Codec ID                                 : S_TEXT/UTF8
  200. Codec ID/Info                            : UTF-8 Plain Text
  201. Duration                                 : 1 h 54 min
  202. Bit rate                                 : 27 b/s
  203. Count of elements                        : 784
  204. Stream size                              : 23.2 KiB (0%)
  205. Title                                    : Brazilian Portuguese
  206. Language                                 : Portuguese
  207. Default                                  : No
  208. Forced                                   : No
  209. Text #13
  210. ID                                       : 15
  211. Format                                   : UTF-8
  212. Codec ID                                 : S_TEXT/UTF8
  213. Codec ID/Info                            : UTF-8 Plain Text
  214. Duration                                 : 1 h 54 min
  215. Bit rate                                 : 28 b/s
  216. Count of elements                        : 785
  217. Stream size                              : 23.5 KiB (0%)
  218. Title                                    : European Spanish
  219. Language                                 : Spanish
  220. Default                                  : No
  221. Forced                                   : No
  222. Text #14
  223. ID                                       : 16
  224. Format                                   : UTF-8
  225. Codec ID                                 : S_TEXT/UTF8
  226. Codec ID/Info                            : UTF-8 Plain Text
  227. Duration                                 : 1 h 43 min
  228. Bit rate                                 : 31 b/s
  229. Count of elements                        : 783
  230. Stream size                              : 24.0 KiB (0%)
  231. Title                                    : Spanish
  232. Language                                 : Spanish
  233. Default                                  : No
  234. Forced                                   : No
  235. Text #15
  236. ID                                       : 17
  237. Format                                   : UTF-8
  238. Codec ID                                 : S_TEXT/UTF8
  239. Codec ID/Info                            : UTF-8 Plain Text
  240. Duration                                 : 1 h 54 min
  241. Bit rate                                 : 26 b/s
  242. Count of elements                        : 700
  243. Stream size                              : 22.0 KiB (0%)
  244. Title                                    : Swedish
  245. Language                                 : Swedish
  246. Default                                  : No
  247. Forced                                   : No
复制代码



                                       
                                       

                                       
                                       
                                       




回复

使用道具 举报

发表于 2020-9-17 02:07:30 | 显示全部楼层
感谢楼主分享
回复 支持 2 反对 0

使用道具 举报

发表于 2020-9-17 10:17:12 | 显示全部楼层
小 女 骇 的 副 利  【 k m 3 . m e
回复 支持 2 反对 0

使用道具 举报

发表于 2020-9-8 02:04:08 | 显示全部楼层
速度好快啊,别家的只有1080.这都4K了
回复 支持 反对

使用道具 举报

发表于 2020-9-8 04:35:39 | 显示全部楼层
楼主发贴辛苦了,谢谢楼主分享!我觉得蓝光电影网是注册对了!
回复 支持 反对

使用道具 举报

发表于 2020-9-8 08:08:58 | 显示全部楼层
非常感谢楼主精彩分享,辛苦。
回复 支持 反对

使用道具 举报

发表于 2020-9-8 08:34:01 | 显示全部楼层
楼主发贴辛苦了,谢谢楼主分享!我觉得蓝光电影网是注册对了!
回复 支持 反对

使用道具 举报

发表于 2020-9-8 08:42:07 | 显示全部楼层
楼主发贴辛苦了,谢谢楼主分享!我觉得蓝光电影网是注册对了!
回复 支持 反对

使用道具 举报

发表于 2020-9-8 08:51:42 | 显示全部楼层
速度好快啊,别家的只有1080.这都4K了
回复 支持 反对

使用道具 举报

发表于 2020-9-8 08:54:54 | 显示全部楼层

楼主太厉害了!楼主,电影应该很好看我觉得蓝光电影网真是个好地方!
回复 支持 反对

使用道具 举报

发表于 2020-9-8 09:00:39 | 显示全部楼层
我还是不得不说这是一部烂片!
回复 支持 反对

使用道具 举报

 成长值: 5395

发表于 2020-9-8 09:10:50 | 显示全部楼层
太好啦&萬分感謝版主的無私發佈分享%
回复 支持 反对

使用道具 举报

懒得打字嘛,点击右侧快捷回复 【右侧内容,后台自定义】
您需要登录后才可以回帖 登录 | 立即加入

本版积分规则

现在加入蓝光电影网,注册一个账号
上个主题 下个主题 快速回复 收藏帖子 返回列表 客服中心 搜索

手机版|小黑屋| 蓝光电影网 |网站地图 

Copyright © 2015-2019 Comsenz Inc.  Template by 蓝光电影论坛 All Rights Reserved.

Powered by 蓝光电影网 X3.4

特别声明:本站所有资源均由网上收集而来,版权归原影音公司所有,如果侵犯了你的权益,请通知我们,我们会及时删除侵权内容.

快速回复 返回顶部 返回列表