找回密码

蓝光电影网

查看: 182|回复: 2

[8bit.SDR] 毒战 Believer.2018.KOREAN.2160p.BluRay.x264.8bit.SDR.DTS-HD.MA.TrueHD.7.1.Atmos-SWTYBLZ 53.72GB

[复制链接]

 成长值: 16065

发表于 2020-9-8 01:05:24 | 显示全部楼层 |阅读模式


◎译  名 毒战/Believer/Drug War/信徒(台)/毒战寒流(港)/毒战韩国版
◎片  名 ??
◎年  代 2018
◎产  地 韩国
◎类  别 动作 / 犯罪
◎语  言 韩语
◎上映日期 2018-05-22(韩国)
◎IMDb评分  6.5/10 from 1606 users
◎IMDb链接  https://www.imdb.com/title/tt7095654/
◎豆瓣评分 6.6/10 from 15586 users
◎豆瓣链接 https://movie.douban.com/subject/26934399/
◎片  长 123分钟
◎导  演 李海暎 Hae-yeong Lee
◎编  剧 郑瑞景 Seo-Gyeong Jeong / 李海暎 Hae-yeong Lee
◎主  演 赵震雄 Cho Jin-woong
       柳俊烈 Jun-yeol Ryu
       金柱赫 Joo-hyuk Kim
       金成铃 Sung-ryeong Kim
       朴海俊 Hea-jun Park
       车胜元 Seung-won Cha
       郑家蓝 Ga-ram  Jung
       南文哲 Moon-cheol Nam
       徐贤宇 Seo Hyeon-woo
       姜承贤 Seung-hyun Kang
       京熙妍 Seo-yeon Jin
       金东英 Dong-yeong Kim
       李周英 Joo-young Lee
       琴赛璐 Keum Sae-rok
       郑钟宇 Jung Jong-woo
       权度云 Do-woon Kwon
       車淳亨 Soon-hyung Cha
       Tae-joon  Kim
       李智敏 Ji-min Lee
       朴成妍 Seong-yeon Park
       金在炯 Jae-heung Kim
       朴恩荣 Eun-yeong Park
       金泰俊 Tae-joon Kim
       Hyeok-seong Kwon
       姜智贤 Ji-hyun Kang
       尹锡浩 Seok-ho Yoon
       崔英民 Young-min Choi
       郑浚远 Jung Jun-won
       张泰民 Tae-min Jang
◎标  签 韩国 | 犯罪 | 韩国电影 | 翻拍 | 动作 | 2018 | 柳俊烈 | 毒战
◎简  介


  韩国最大规模贩毒组织的神秘BOSS李先生气焰嚣张,他新近通过一起爆炸案除掉了无用的干部,甚至连侥幸逃生的骨干也被害死在警局之中。缉毒组组长赵元浩(赵震雄 饰)从爆炸案现场救出在组织内担任联络工作的徐永乐(柳俊烈 饰),经过审讯得知,徐原本负责与盘踞在中国吉林的毒枭陈河霖(金柱赫 饰)接洽,因提前回国而误卷入组织清洗之中。赵组长将计就计,决定周旋在李先生和陈河霖中间上演双簧,以将贩毒组织连根拔起。这一过程险象环生,危机不断,而真正的李先生却还未显现出他真实的用心……
  
  本片翻拍自杜琪峰的同名原作。
◎获奖情况
  第39届韩国电影青龙奖 ?(2018)
  最佳男配角 金柱赫
  最佳女配角(提名) 京熙妍?/?李周英
  最佳配乐
  
  第13届亚洲电影大奖 ?(2019)
  最佳女配角(提名) 京熙妍
  最佳原创音乐(提名) 达班伦
  
  第55届百想艺术大赏 ?(2019)
  电影类最佳导演(提名) 李海暎
  电影类最佳男配角 金柱赫
  电影类最佳男配角(提名) 朴海俊
  电影类最佳女配角(提名) 京熙妍
  电影类最佳新人女演员(提名) 李周英
  电影类最佳艺术奖(提名)
  
  第55届韩国电影大钟奖 ?(2018)
  最佳男主角(提名) 赵震雄
  最佳男配角 金柱赫
  最佳女配角 京熙妍
  最佳摄影(提名)
  最佳美术(提名)
  最佳音乐(提名) 姜其永
  最佳技术奖(提名)
  1. Video
  2. ID                                       : 1
  3. Format                                   : AVC
  4. Format/Info                              : Advanced Video Codec
  5. Format profile                           : [email protected]
  6. Format settings                          : CABAC / 5 Ref Frames
  7. Format settings, CABAC                   : Yes
  8. Format settings, Reference frames        : 5 frames
  9. Codec ID                                 : V_MPEG4/ISO/AVC
  10. Duration                                 : 2 h 3 min
  11. Bit rate                                 : 53.8 Mb/s
  12. Width                                    : 3 840 pixels
  13. Height                                   : 1 612 pixels
  14. Display aspect ratio                     : 2.40:1
  15. Frame rate mode                          : Constant
  16. Frame rate                               : 23.976 (24000/1001/189150) FPS
  17. Color space                              : YUV
  18. Chroma subsampling                       : 4:2:0
  19. Bit depth                                : 8 bits
  20. Scan type                                : Progressive
  21. Bits/(Pixel*Frame)                       : 0.363
  22. Stream size                              : 46.4 GiB (87%)
  23. Title                                    : Believer.2018.KOREAN.2160p.BluRay.x264.8bit.SDR.DTS-HD.MA.TrueHD.7.1.Atmos-SWTYBLZ
  24. Writing library                          : x264 core 157 r2935 545de2f
  25. Encoding settings                        : cabac=1 / ref=5 / deblock=1:-1:-1 / analyse=0x3:0x113 / me=umh / subme=10 / psy=1 / psy_rd=1.00:0.15 / mixed_ref=1 / me_range=48 / chroma_me=1 / trellis=2 / 8x8dct=1 / cqm=0 / deadzone=21,11 / fast_pskip=1 / chroma_qp_offset=-3 / threads=36 / lookahead_threads=3 / sliced_threads=0 / nr=0 / decimate=0 / interlaced=0 / bluray_compat=0 / constrained_intra=0 / bframes=3 / b_pyramid=2 / b_adapt=2 / b_bias=0 / direct=3 / weightb=1 / open_gop=0 / weightp=2 / keyint=250 / keyint_min=23 / scenecut=40 / intra_refresh=0 / rc_lookahead=50 / rc=crf / mbtree=1 / crf=20.0 / qcomp=0.60 / qpmin=0 / qpmax=69 / qpstep=4 / ip_ratio=1.40 / aq=1:1.00
  26. Default                                  : Yes
  27. Forced                                   : No
  28. Audio #1
  29. ID                                       : 2
  30. ID in the original source medium         : 4352 (0x1100)
  31. Format                                   : MLP FBA 16-ch
  32. Format/Info                              : Meridian Lossless Packing FBA with 16-channel presentation
  33. Commercial name                          : Dolby TrueHD with Dolby Atmos
  34. Codec ID                                 : A_TRUEHD
  35. Duration                                 : 2 h 3 min
  36. Bit rate mode                            : Variable
  37. Bit rate                                 : 3 798 kb/s
  38. Maximum bit rate                         : 6 825 kb/s
  39. Channel(s)                               : 8 channels
  40. Channel layout                           : L R C LFE Ls Rs Lb Rb
  41. Sampling rate                            : 48.0 kHz
  42. Frame rate                               : 1 200.000 FPS (40 SPF)
  43. Compression mode                         : Lossless
  44. Stream size                              : 3.27 GiB (6%)
  45. Title                                    : Believer.2018.KOREAN.2160p.BluRay.x264.8bit.SDR.DTS-HD.MA.TrueHD.7.1.Atmos-SWTYBLZ
  46. Language                                 : Korean
  47. Default                                  : Yes
  48. Forced                                   : No
  49. Original source medium                   : Blu-ray
  50. Number of dynamic objects                : 11
  51. Bed channel count                        : 1 channel
  52. Bed channel configuration                : LFE
  53. Audio #2
  54. ID                                       : 3
  55. ID in the original source medium         : 4353 (0x1101)
  56. Format                                   : DTS XLL X
  57. Format/Info                              : Digital Theater Systems
  58. Commercial name                          : DTS-HD Master Audio
  59. Codec ID                                 : A_DTS
  60. Duration                                 : 2 h 3 min
  61. Bit rate mode                            : Variable
  62. Bit rate                                 : 3 678 kb/s
  63. Channel(s)                               : 8 channels
  64. Channel(s)_Original                      : Object Based
  65. ChannelLayout_Original                   : Object Based
  66. Sampling rate                            : 48.0 kHz
  67. Frame rate                               : 93.750 FPS (512 SPF)
  68. Bit depth                                : 24 bits
  69. Stream size                              : 3.17 GiB (6%)
  70. Title                                    : Believer.2018.KOREAN.2160p.BluRay.x264.8bit.SDR.DTS-HD.MA.TrueHD.7.1.Atmos-SWTYBLZ
  71. Language                                 : Korean
  72. Default                                  : No
  73. Forced                                   : No
  74. Original source medium                   : Blu-ray
  75. Audio #3
  76. ID                                       : 4
  77. ID in the original source medium         : 4352 (0x1100)
  78. Format                                   : AC-3
  79. Format/Info                              : Audio Coding 3
  80. Commercial name                          : Dolby Digital
  81. Codec ID                                 : A_AC3
  82. Duration                                 : 2 h 3 min
  83. Bit rate mode                            : Constant
  84. Bit rate                                 : 640 kb/s
  85. Channel(s)                               : 6 channels
  86. Channel layout                           : L R C LFE Ls Rs
  87. Sampling rate                            : 48.0 kHz
  88. Frame rate                               : 31.250 FPS (1536 SPF)
  89. Compression mode                         : Lossy
  90. Stream size                              : 565 MiB (1%)
  91. Title                                    : Believer.2018.KOREAN.2160p.BluRay.x264.8bit.SDR.DTS-HD.MA.TrueHD.7.1.Atmos-SWTYBLZ
  92. Language                                 : Korean
  93. Service kind                             : Complete Main
  94. Default                                  : No
  95. Forced                                   : No
  96. Original source medium                   : Blu-ray
  97. Text #1
  98. ID                                       : 5
  99. Format                                   : UTF-8
  100. Codec ID                                 : S_TEXT/UTF8
  101. Codec ID/Info                            : UTF-8 Plain Text
  102. Duration                                 : 1 h 57 min
  103. Bit rate                                 : 36 b/s
  104. Count of elements                        : 1154
  105. Stream size                              : 31.8 KiB (0%)
  106. Title                                    : English-SRT
  107. Language                                 : English
  108. Default                                  : Yes
  109. Forced                                   : No
  110. Text #2
  111. ID                                       : 6
  112. ID in the original source medium         : 4768 (0x12A0)
  113. Format                                   : PGS
  114. Muxing mode                              : zlib
  115. Codec ID                                 : S_HDMV/PGS
  116. Codec ID/Info                            : Picture based subtitle format used on BDs/HD-DVDs
  117. Duration                                 : 1 h 54 min
  118. Bit rate                                 : 25.3 kb/s
  119. Count of elements                        : 2270
  120. Stream size                              : 20.7 MiB (0%)
  121. Title                                    : Korean-PGS
  122. Language                                 : Korean
  123. Default                                  : No
  124. Forced                                   : No
  125. Original source medium                   : Blu-ray
  126. Text #3
  127. ID                                       : 7
  128. ID in the original source medium         : 4769 (0x12A1)
  129. Format                                   : PGS
  130. Muxing mode                              : zlib
  131. Codec ID                                 : S_HDMV/PGS
  132. Codec ID/Info                            : Picture based subtitle format used on BDs/HD-DVDs
  133. Duration                                 : 1 h 57 min
  134. Bit rate                                 : 24.2 kb/s
  135. Count of elements                        : 2310
  136. Stream size                              : 20.3 MiB (0%)
  137. Title                                    : English-PGS
  138. Language                                 : English
  139. Default                                  : No
  140. Forced                                   : No
  141. Original source medium                   : Blu-ray
  142. Menu
  143. 00:00:00.000                             : en:Chapter 01
  144. 00:07:13.891                             : en:Chapter 02
  145. 00:16:30.447                             : en:Chapter 03
  146. 00:26:24.416                             : en:Chapter 04
  147. 00:38:17.336                             : en:Chapter 05
  148. 00:50:38.618                             : en:Chapter 06
  149. 01:01:25.515                             : en:Chapter 07
  150. 01:11:35.874                             : en:Chapter 08
  151. 01:25:12.190                             : en:Chapter 09
  152. 01:37:58.873                             : en:Chapter 10
  153. 01:50:57.025                             : en:Chapter 11
  154. 01:58:43.157                             : en:Chapter 12
复制代码



                                       
                                       

                                       
                                       
                                       




回复

使用道具 举报

发表于 2020-9-9 08:57:32 | 显示全部楼层
楼主发贴辛苦了,谢谢楼主分享!我觉得蓝光电影网是注册对了!
回复 支持 反对

使用道具 举报

发表于 2020-9-16 20:44:03 | 显示全部楼层
楼主发贴辛苦了,谢谢楼主分享!我觉得蓝光电影网是注册对了!
回复 支持 反对

使用道具 举报

懒得打字嘛,点击右侧快捷回复 【右侧内容,后台自定义】
您需要登录后才可以回帖 登录 | 立即加入

本版积分规则

现在加入蓝光电影网,注册一个账号
上个主题 下个主题 快速回复 收藏帖子 返回列表 客服中心 搜索

手机版|小黑屋| 蓝光电影网 |网站地图 

Copyright © 2015-2019 Comsenz Inc.  Template by 蓝光电影论坛 All Rights Reserved.

Powered by 蓝光电影网 X3.4

特别声明:本站所有资源均由网上收集而来,版权归原影音公司所有,如果侵犯了你的权益,请通知我们,我们会及时删除侵权内容.

快速回复 返回顶部 返回列表