找回密码

蓝光电影网

查看: 686|回复: 11

[2160p] 星际传奇 Pitch.Black.2000.DC.2160p.UHD.BluRay.X265.10bit.HDR.DTS-HD.MA.5.1-IAMABLE 35.76GB

[复制链接]

 成长值: 17745

发表于 2020-8-17 17:56:13 | 显示全部楼层 |阅读模式


◎译  名 星际传奇 / The Chronicles of Riddick: Pitch Black / 漆黑一片 / 黑煞天魔
◎片  名 Pitch Black
◎年  代 2000
◎产  地 美国
◎类  别 动作 / 科幻 / 惊悚
◎语  言 英语 / 阿拉伯语
◎上映日期 2000-02-18
◎IMDb评分  7.1/10 from 222171 users
◎IMDb链接  https://www.imdb.com/title/tt0134847
◎豆瓣评分 7.2/10 from 24823 users
◎豆瓣链接 https://movie.douban.com/subject/1296459/
◎片  长 109 分钟
◎导  演 David Twohy
◎编  剧 Jim Wheat / Ken Wheat / David Twohy
◎主  演 Vin Diesel
       Radha Mitchell
       Cole Hauser
       Keith David
       Lewis Fitz-Gerald

◎标  签 科幻 | 美国 | 动作 | 惊悚 | 文·迪塞尔 | 星际传奇 | 2000 | 美国电影
◎简  介

  
  在浩瀚的宇宙间,一艘名为猎人号的商用飞船正进行着漫长的旅程。船上搭载着40位乘客,其中包括重刑罪犯理查·雷迪克(Vin Diesel 饰)。当行驶到丹吉尔星系时,突如其来的事故令飞船遭受重创,空气飞速泄漏,最终迫降到一颗炎热而荒凉的星球上。着陆时的巨大冲击力几乎让飞船支离破碎,死伤者众多。幸存者们来到这片陌生的国土,严酷的自然环境考验着每一个人,不同民族不同职业的他们此时必须捐弃前嫌,联合起来。他们不仅要与天空中三个太阳作抗争,还要时刻提防隐藏在黑暗中的危险……
  本片荣获2001年澳大利亚摄影师协会年度最佳摄影师和金三角架奖。
  1. Video
  2. ID                                       : 1
  3. Format                                   : HEVC
  4. Format/Info                              : High Efficiency Video Coding
  5. Format profile                           : Main [email protected]@High
  6. HDR format                               : SMPTE ST 2086, HDR10 compatible
  7. Codec ID                                 : V_MPEGH/ISO/HEVC
  8. Duration                                 : 1 h 51 min
  9. Bit rate                                 : 40.9 Mb/s
  10. Width                                    : 3 840 pixels
  11. Height                                   : 1 634 pixels
  12. Display aspect ratio                     : 2.35:1
  13. Frame rate mode                          : Constant
  14. Frame rate                               : 24.000 FPS
  15. Color space                              : YUV
  16. Chroma subsampling                       : 4:2:0 (Type 2)
  17. Bit depth                                : 10 bits
  18. Bits/(Pixel*Frame)                       : 0.272
  19. Stream size                              : 31.9 GiB (90%)
  20. Writing library                          : x265 3.47b120308dc64:[Windows][MSVC 1900][64 bit] 10bit
  21. Encoding settings                        : cpuid=1111039 / frame-threads=5 / numa-pools=36 / wpp / no-pmode / no-pme / no-psnr / no-ssim / log-level=2 / input-csp=1 / input-res=3840x1634 / interlace=0 / total-frames=160937 / level-idc=51 / high-tier=1 / uhd-bd=0 / ref=4 / no-allow-non-conformance / repeat-headers / annexb / aud / hrd / info / hash=0 / no-temporal-layers / no-open-gop / min-keyint=24 / keyint=250 / gop-lookahead=0 / bframes=4 / b-adapt=2 / b-pyramid / bframe-bias=0 / rc-lookahead=25 / lookahead-slices=4 / scenecut=40 / hist-scenecut=0 / radl=0 / no-splice / no-intra-refresh / ctu=64 / min-cu-size=8 / rect / no-amp / max-tu-size=32 / tu-inter-depth=1 / tu-intra-depth=1 / limit-tu=0 / rdoq-level=2 / dynamic-rd=0.00 / no-ssim-rd / signhide / no-tskip / nr-intra=0 / nr-inter=0 / no-constrained-intra / no-strong-intra-smoothing / max-merge=3 / limit-refs=3 / limit-modes / me=3 / subme=3 / merange=57 / temporal-mvp / no-frame-dup / no-hme / weightp / no-weightb / no-analyze-src-pics / deblock=-3:-3 / no-sao / no-sao-non-deblock / rd=4 / selective-sao=0 / no-early-skip / rskip / no-fast-intra / no-tskip-fast / no-cu-lossless / no-b-intra / no-splitrd-skip / rdpenalty=0 / psy-rd=2.00 / psy-rdoq=1.00 / no-rd-refine / no-lossless / cbqpoffs=0 / crqpoffs=0 / rc=crf / crf=15.5 / qcomp=0.60 / qpstep=4 / stats-write=0 / stats-read=0 / vbv-maxrate=160000 / vbv-bufsize=160000 / vbv-init=0.9 / crf-max=0.0 / crf-min=0.0 / ipratio=1.40 / pbratio=1.30 / aq-mode=2 / aq-strength=0.80 / cutree / zone-count=0 / no-strict-cbr / qg-size=32 / no-rc-grain / qpmax=69 / qpmin=0 / no-const-vbv / sar=1 / overscan=0 / videoformat=5 / range=0 / colorprim=9 / transfer=16 / colormatrix=9 / chromaloc=1 / chromaloc-top=2 / chromaloc-bottom=2 / display-window=0 / master-display=G(8500,39850)B(6550,2300)R(35400,14600)WP(15635,16450)L(10000000,1) / cll=0,0 / min-luma=0 / max-luma=1023 / log2-max-poc-lsb=8 / vui-timing-info / vui-hrd-info / slices=1 / no-opt-qp-pps / no-opt-ref-list-length-pps / no-multi-pass-opt-rps / scenecut-bias=0.05 / hist-threshold=0.01 / no-opt-cu-delta-qp / no-aq-motion / hdr10 / hdr10-opt / no-dhdr10-opt / no-idr-recovery-sei / analysis-reuse-level=0 / analysis-save-reuse-level=0 / analysis-load-reuse-level=0 / scale-factor=0 / refine-intra=0 / refine-inter=0 / refine-mv=1 / refine-ctu-distortion=0 / no-limit-sao / ctu-info=0 / no-lowpass-dct / refine-analysis-type=0 / copy-pic=1 / max-ausize-factor=1.0 / no-dynamic-refine / no-single-sei / no-hevc-aq / no-svt / no-field / qp-adaptation-range=1.00 / no-scenecut-aware-qpconformance-window-offsets / right=0 / bottom=0 / decoder-max-rate=0
  22. Default                                  : Yes
  23. Forced                                   : No
  24. Color range                              : Limited
  25. Color primaries                          : BT.2020
  26. Transfer characteristics                 : PQ
  27. Matrix coefficients                      : BT.2020 non-constant
  28. Mastering display color primaries        : BT.2020
  29. Mastering display luminance              : min: 0.0001 cd/m2, max: 1000 cd/m2
  30. Audio #1
  31. ID                                       : 2
  32. Format                                   : DTS XLL
  33. Format/Info                              : Digital Theater Systems
  34. Commercial name                          : DTS-HD Master Audio
  35. Codec ID                                 : A_DTS
  36. Duration                                 : 1 h 51 min
  37. Bit rate mode                            : Variable
  38. Bit rate                                 : 4 158 kb/s
  39. Channel(s)                               : 6 channels
  40. Channel layout                           : C L R Ls Rs LFE
  41. Sampling rate                            : 48.0 kHz
  42. Frame rate                               : 93.750 FPS (512 SPF)
  43. Bit depth                                : 24 bits
  44. Compression mode                         : Lossless
  45. Stream size                              : 3.25 GiB (9%)
  46. Title                                    : DTS-HD MA 5.1
  47. Language                                 : English
  48. Default                                  : Yes
  49. Forced                                   : No
  50. Audio #2
  51. ID                                       : 3
  52. Format                                   : AAC LC
  53. Format/Info                              : Advanced Audio Codec Low Complexity
  54. Codec ID                                 : A_AAC-2
  55. Duration                                 : 1 h 51 min
  56. Bit rate                                 : 124 kb/s
  57. Channel(s)                               : 2 channels
  58. Channel layout                           : L R
  59. Sampling rate                            : 48.0 kHz
  60. Frame rate                               : 46.875 FPS (1024 SPF)
  61. Compression mode                         : Lossy
  62. Delay relative to video                  : 9 ms
  63. Stream size                              : 99.4 MiB (0%)
  64. Title                                    : Commentary with director David Twohy and actors Vin Diesel and Cole Hauser
  65. Language                                 : English
  66. Default                                  : No
  67. Forced                                   : No
  68. Audio #3
  69. ID                                       : 4
  70. Format                                   : AAC LC
  71. Format/Info                              : Advanced Audio Codec Low Complexity
  72. Codec ID                                 : A_AAC-2
  73. Duration                                 : 1 h 51 min
  74. Bit rate                                 : 132 kb/s
  75. Channel(s)                               : 2 channels
  76. Channel layout                           : L R
  77. Sampling rate                            : 48.0 kHz
  78. Frame rate                               : 46.875 FPS (1024 SPF)
  79. Compression mode                         : Lossy
  80. Delay relative to video                  : 9 ms
  81. Stream size                              : 104 MiB (0%)
  82. Title                                    : Commentary with director David Twohy, producer Tom Engelman and visual effects supervisor Peter Chiang
  83. Language                                 : English
  84. Default                                  : No
  85. Forced                                   : No
  86. Text #1
  87. ID                                       : 5
  88. Format                                   : UTF-8
  89. Codec ID                                 : S_TEXT/UTF8
  90. Codec ID/Info                            : UTF-8 Plain Text
  91. Duration                                 : 1 h 44 min
  92. Bit rate                                 : 37 b/s
  93. Count of elements                        : 949
  94. Stream size                              : 29.0 KiB (0%)
  95. Title                                    : Stripped SRT
  96. Language                                 : English
  97. Default                                  : No
  98. Forced                                   : No
  99. Text #2
  100. ID                                       : 6
  101. Format                                   : UTF-8
  102. Codec ID                                 : S_TEXT/UTF8
  103. Codec ID/Info                            : UTF-8 Plain Text
  104. Duration                                 : 1 h 44 min
  105. Bit rate                                 : 41 b/s
  106. Count of elements                        : 1123
  107. Stream size                              : 31.8 KiB (0%)
  108. Title                                    : SDH SRT
  109. Language                                 : English
  110. Default                                  : No
  111. Forced                                   : No
  112. Text #3
  113. ID                                       : 7
  114. Format                                   : PGS
  115. Muxing mode                              : zlib
  116. Codec ID                                 : S_HDMV/PGS
  117. Codec ID/Info                            : Picture based subtitle format used on BDs/HD-DVDs
  118. Duration                                 : 1 h 44 min
  119. Bit rate                                 : 27.8 kb/s
  120. Count of elements                        : 2246
  121. Stream size                              : 20.8 MiB (0%)
  122. Title                                    : English
  123. Language                                 : English
  124. Default                                  : No
  125. Forced                                   : No
  126. Menu
  127. 00:00:00.000                             : en:Chapter 01
  128. 00:11:13.208                             : en:Chapter 02
  129. 00:18:27.458                             : en:Chapter 03
  130. 00:27:09.708                             : en:Chapter 04
  131. 00:36:45.417                             : en:Chapter 05
  132. 00:46:35.917                             : en:Chapter 06
  133. 00:56:13.625                             : en:Chapter 07
  134. 01:02:39.625                             : en:Chapter 08
  135. 01:12:17.333                             : en:Chapter 09
  136. 01:19:15.750                             : en:Chapter 10
  137. 01:33:36.583                             : en:Chapter 11
  138. 01:39:17.708                             : en:Chapter 12
复制代码



                                       
                                       

                                       
                                       
                                       




回复

使用道具 举报

发表于 2020-8-18 17:59:32 | 显示全部楼层
很经典的老片子了
回复 支持 反对

使用道具 举报

 成长值: 11625

发表于 2020-8-18 20:06:20 | 显示全部楼层
经典的老片子
回复 支持 反对

使用道具 举报

 成长值: 2440

发表于 2020-8-18 23:59:51 | 显示全部楼层
楼主发贴辛苦了,谢谢楼主分享!我觉得蓝光电影网是注册对了!
回复 支持 反对

使用道具 举报

发表于 2020-8-19 02:38:15 | 显示全部楼层
楼主发贴辛苦了,谢谢楼主分享!我觉得蓝光电影网是注册对了!
回复 支持 反对

使用道具 举报

发表于 2020-8-19 08:52:47 | 显示全部楼层
得到的点点滴滴多多多多多多多多
回复 支持 反对

使用道具 举报

发表于 2020-8-19 20:23:09 | 显示全部楼层
好东西,收下拉
回复 支持 反对

使用道具 举报

发表于 2020-8-20 17:03:49 | 显示全部楼层

我看不错噢 谢谢楼主!蓝光电影网越来越好!
回复 支持 反对

使用道具 举报

发表于 2020-8-21 19:58:56 | 显示全部楼层
既然你诚信诚意的推荐了,那我就勉为其难的看看吧
回复 支持 反对

使用道具 举报

发表于 2020-8-22 09:54:24 | 显示全部楼层
   进来瞅瞅
回复 支持 反对

使用道具 举报

懒得打字嘛,点击右侧快捷回复 【右侧内容,后台自定义】
您需要登录后才可以回帖 登录 | 立即加入

本版积分规则

现在加入蓝光电影网,注册一个账号
上个主题 下个主题 快速回复 收藏帖子 返回列表 客服中心 搜索

手机版|小黑屋| 蓝光电影网 |网站地图 

Copyright © 2015-2019 Comsenz Inc.  Template by 蓝光电影论坛 All Rights Reserved.

Powered by 蓝光电影网 X3.4

特别声明:本站所有资源均由网上收集而来,版权归原影音公司所有,如果侵犯了你的权益,请通知我们,我们会及时删除侵权内容.

快速回复 返回顶部 返回列表