找回密码

蓝光电影网

查看: 170|回复: 8

[其他] 男色/新男人养成 Mansome.2012.1080p.AMZN.WEBRip.DDP5.1.x264-alfaHD 6.04GB

[复制链接]

 成长值: 15255

发表于 2020-7-31 20:22:47 | 显示全部楼层 |阅读模式
男色/新男人养成 Mansome.2012.1080p.AMZN.WEBRip.DDP5.1.x264-alfaHD 6.04GB-1.jpeg

◎译  名 男色 / 新男人养成 / 男士爱美丽
◎片  名 Mansome
◎年  代 2012
◎产  地 美国
◎类  别 纪录片
◎语  言 英语
◎IMDb评分  5.4/10 from 2801 users
◎IMDb链接  https://www.imdb.com/title/tt2294729
◎豆瓣评分 0/10 from 0 users
◎豆瓣链接 https://movie.douban.com/subject/10575831/
◎导  演 morgan spurlocks
◎主  演 Jason Bateman
       Will Arnett

◎标  签 男男同性恋电影 | 美国 | 纪录片 | 美国电影 | 男性 | 好想看啊…… | PaulRudd | JasonBateman
◎简  介

  
  As fans patiently wait for new episodes of Arrested Development, maybe watching Michael and Gob Bluth talk about body hair will help fill the void. Jason Bateman and Will Arnett not only star in, but are the executive producers of a new documentary called Mansome, directed by Morgan Spurlock. The humorous documentary delves deep into the crevices of male grooming and plucks at how the practice has changed what it means to be a man. Scheduled for release on May 18, the film will have its world premiere at the Tribeca Film Festival this month and some clips from the film have sprouted online. Hopefully not in a hard to reach area.
  1. Video
  2. ID                                       : 1
  3. Format                                   : AVC
  4. Format/Info                              : Advanced Video Codec
  5. Format profile                           : [email protected]
  6. Format settings                          : CABAC / 4 Ref Frames
  7. Format settings, CABAC                   : Yes
  8. Format settings, Reference frames        : 4 frames
  9. Format settings, GOP                     : M=4, N=48
  10. Codec ID                                 : V_MPEG4/ISO/AVC
  11. Duration                                 : 1 h 22 min
  12. Bit rate mode                            : Constant
  13. Bit rate                                 : 10 000 kb/s
  14. Width                                    : 1 920 pixels
  15. Height                                   : 1 080 pixels
  16. Display aspect ratio                     : 16:9
  17. Frame rate mode                          : Constant
  18. Frame rate                               : 23.976 (24000/1001/189150) FPS
  19. Color space                              : YUV
  20. Chroma subsampling                       : 4:2:0
  21. Bit depth                                : 8 bits
  22. Scan type                                : Progressive
  23. Bits/(Pixel*Frame)                       : 0.201
  24. Stream size                              : 5.67 GiB (94%)
  25. Language                                 : English
  26. Default                                  : Yes
  27. Forced                                   : No
  28. Color range                              : Limited
  29. Color primaries                          : BT.709
  30. Transfer characteristics                 : BT.709
  31. Matrix coefficients                      : BT.709
  32. Audio
  33. ID                                       : 2
  34. Format                                   : E-AC-3
  35. Format/Info                              : Enhanced AC-3
  36. Commercial name                          : Dolby Digital Plus
  37. Codec ID                                 : A_EAC3
  38. Duration                                 : 1 h 22 min
  39. Bit rate mode                            : Constant
  40. Bit rate                                 : 640 kb/s
  41. Channel(s)                               : 6 channels
  42. Channel layout                           : L R C LFE Ls Rs
  43. Sampling rate                            : 48.0 kHz
  44. Frame rate                               : 31.250 FPS (1536 SPF)
  45. Compression mode                         : Lossy
  46. Stream size                              : 377 MiB (6%)
  47. Language                                 : English
  48. Service kind                             : Complete Main
  49. Default                                  : Yes
  50. Forced                                   : No
  51. Text #1
  52. ID                                       : 3
  53. Format                                   : UTF-8
  54. Codec ID                                 : S_TEXT/UTF8
  55. Codec ID/Info                            : UTF-8 Plain Text
  56. Duration                                 : 1 h 20 min
  57. Bit rate                                 : 110 b/s
  58. Count of elements                        : 2853
  59. Stream size                              : 64.8 KiB (0%)
  60. Language                                 : English
  61. Default                                  : No
  62. Forced                                   : No
  63. Text #2
  64. ID                                       : 4
  65. Format                                   : UTF-8
  66. Codec ID                                 : S_TEXT/UTF8
  67. Codec ID/Info                            : UTF-8 Plain Text
  68. Duration                                 : 1 h 20 min
  69. Bit rate                                 : 112 b/s
  70. Count of elements                        : 2936
  71. Stream size                              : 66.4 KiB (0%)
  72. Title                                    : SDH
  73. Language                                 : English
  74. Default                                  : No
  75. Forced                                   : No
复制代码

男色/新男人养成 Mansome.2012.1080p.AMZN.WEBRip.DDP5.1.x264-alfaHD 6.04GB-2.png
男色/新男人养成 Mansome.2012.1080p.AMZN.WEBRip.DDP5.1.x264-alfaHD 6.04GB-3.png






回复

使用道具 举报

 成长值: 4265

发表于 2020-7-31 22:32:07 | 显示全部楼层

楼主太厉害了!楼主,电影应该很好看我觉得蓝光电影网真是个好地方!
回复 支持 反对

使用道具 举报

 成长值: 4600

发表于 2020-7-31 22:32:47 | 显示全部楼层
太好啦&萬分感謝版主的無私發佈分享%
回复 支持 反对

使用道具 举报

发表于 6 天前 | 显示全部楼层

楼主太厉害了!楼主,电影应该很好看我觉得蓝光电影网真是个好地方!
回复 支持 反对

使用道具 举报

发表于 5 天前 | 显示全部楼层
楼主发贴辛苦了,谢谢楼主分享!我觉得蓝光电影网是注册对了!
回复 支持 反对

使用道具 举报

 成长值: 730

发表于 5 天前 | 显示全部楼层
楼主太厉害了!楼主
回复 支持 反对

使用道具 举报

发表于 5 天前 | 显示全部楼层
楼主发贴辛苦了,谢谢楼主分享!我觉得蓝光电影网是注册对了!
回复 支持 反对

使用道具 举报

发表于 4 天前 | 显示全部楼层
楼主发贴辛苦了,谢谢楼主分享!我觉得蓝光电影网是注册对了!
回复 支持 反对

使用道具 举报

发表于 4 天前 | 显示全部楼层
楼主发贴辛苦了,谢谢楼主分享!我觉得蓝光电影网是注册对了!
回复 支持 反对

使用道具 举报

懒得打字嘛,点击右侧快捷回复 【右侧内容,后台自定义】
您需要登录后才可以回帖 登录 | 立即加入

本版积分规则

现在加入蓝光电影网,注册一个账号
上个主题 下个主题 快速回复 收藏帖子 返回列表 客服中心 搜索

手机版|小黑屋| 蓝光电影网 |网站地图 

Copyright © 2015-2019 Comsenz Inc.  Template by 蓝光电影论坛 All Rights Reserved.

Powered by 蓝光电影网 X3.4

特别声明:本站所有资源均由网上收集而来,版权归原影音公司所有,如果侵犯了你的权益,请通知我们,我们会及时删除侵权内容.

快速回复 返回顶部 返回列表