找回密码

蓝光电影网

查看: 83|回复: 2

[其他] 了解布鲁斯/超級寫手布魯斯 Get.Bruce.1999.1080p.AMZN.WEBRip.DDP2.0.x264-alfaHD 4.98GB

[复制链接]

 成长值: 15255

发表于 2020-7-31 20:22:37 | 显示全部楼层 |阅读模式
了解布鲁斯/超級寫手布魯斯 Get.Bruce.1999.1080p.AMZN.WEBRip.DDP2.0.x264-alfaHD 4.98GB-1.jpeg

◎译  名 了解布鲁斯 / 超級寫手布魯斯(台)
◎片  名 Get Bruce
◎年  代 1999
◎产  地 美国
◎类  别 纪录片
◎语  言 英语
◎上映日期 1999
◎IMDb评分  5.9/10 from 584 users
◎IMDb链接  https://www.imdb.com/title/tt0184510
◎豆瓣评分 0/10 from 0 users
◎豆瓣链接 https://movie.douban.com/subject/5116457/
◎片  长 82 分钟
◎导  演 Andrew J. Kuehn
◎标  签 纪录片
◎简  介

  
  布魯斯維蘭奇這樣定義自己撰寫劇本時的心態:『幫好萊塢明星寫劇本時就像是在幫他們設計戲服一般,每個人的身材都不一樣,每個人都有適合的設計,適合的顏色,所以在劇本的撰寫上也是一樣,得考量他們的態度,並且找到適合他們態度的話語。』幽默風趣的布魯斯維蘭奇,廣受好萊塢巨星與各類傳媒體人士所喜愛,因為他巧思撰寫的台詞與腳本,能在各種活動與典禮上增添不少畫龍點睛的氣氛,如果您還不認識布魯斯,那只要知道許多的頒獎典禮上的台詞或腳本幾乎都是他寫的,包括奧斯卡、東尼獎、艾美獎,相信您對這部布魯斯維蘭奇的紀錄片一定充滿好奇。
  1. Video
  2. ID                                       : 1
  3. Format                                   : AVC
  4. Format/Info                              : Advanced Video Codec
  5. Format profile                           : [email protected]
  6. Format settings                          : CABAC / 4 Ref Frames
  7. Format settings, CABAC                   : Yes
  8. Format settings, Reference frames        : 4 frames
  9. Codec ID                                 : V_MPEG4/ISO/AVC
  10. Duration                                 : 1 h 12 min
  11. Bit rate mode                            : Constant
  12. Bit rate                                 : 10 000 kb/s
  13. Width                                    : 1 440 pixels
  14. Height                                   : 1 080 pixels
  15. Display aspect ratio                     : 4:3
  16. Frame rate mode                          : Constant
  17. Frame rate                               : 23.976 (24000/1001/189150) FPS
  18. Color space                              : YUV
  19. Chroma subsampling                       : 4:2:0
  20. Bit depth                                : 8 bits
  21. Scan type                                : Progressive
  22. Bits/(Pixel*Frame)                       : 0.268
  23. Stream size                              : 4.86 GiB (98%)
  24. Default                                  : Yes
  25. Forced                                   : No
  26. Color range                              : Limited
  27. Color primaries                          : BT.709
  28. Transfer characteristics                 : BT.709
  29. Matrix coefficients                      : BT.709
  30. Audio
  31. ID                                       : 2
  32. Format                                   : E-AC-3
  33. Format/Info                              : Enhanced AC-3
  34. Commercial name                          : Dolby Digital Plus
  35. Codec ID                                 : A_EAC3
  36. Duration                                 : 1 h 12 min
  37. Bit rate mode                            : Constant
  38. Bit rate                                 : 224 kb/s
  39. Channel(s)                               : 2 channels
  40. Channel layout                           : L R
  41. Sampling rate                            : 48.0 kHz
  42. Frame rate                               : 31.250 FPS (1536 SPF)
  43. Compression mode                         : Lossy
  44. Stream size                              : 117 MiB (2%)
  45. Language                                 : English
  46. Service kind                             : Complete Main
  47. Default                                  : Yes
  48. Forced                                   : No
  49. Text
  50. ID                                       : 3
  51. Format                                   : UTF-8
  52. Codec ID                                 : S_TEXT/UTF8
  53. Codec ID/Info                            : UTF-8 Plain Text
  54. Duration                                 : 1 h 12 min
  55. Bit rate                                 : 120 b/s
  56. Count of elements                        : 1297
  57. Stream size                              : 63.8 KiB (0%)
  58. Language                                 : English
  59. Default                                  : No
  60. Forced                                   : No
复制代码

了解布鲁斯/超級寫手布魯斯 Get.Bruce.1999.1080p.AMZN.WEBRip.DDP2.0.x264-alfaHD 4.98GB-2.png
了解布鲁斯/超級寫手布魯斯 Get.Bruce.1999.1080p.AMZN.WEBRip.DDP2.0.x264-alfaHD 4.98GB-3.png
了解布鲁斯/超級寫手布魯斯 Get.Bruce.1999.1080p.AMZN.WEBRip.DDP2.0.x264-alfaHD 4.98GB-4.png






回复

使用道具 举报

发表于 6 天前 | 显示全部楼层
楼主发贴辛苦了,谢谢楼主分享!我觉得蓝光电影网是注册对了!
回复 支持 反对

使用道具 举报

发表于 5 天前 | 显示全部楼层
楼主发贴辛苦了,谢谢楼主分享!我觉得蓝光电影网是注册对了!
回复 支持 反对

使用道具 举报

懒得打字嘛,点击右侧快捷回复 【右侧内容,后台自定义】
您需要登录后才可以回帖 登录 | 立即加入

本版积分规则

现在加入蓝光电影网,注册一个账号
上个主题 下个主题 快速回复 收藏帖子 返回列表 客服中心 搜索

手机版|小黑屋| 蓝光电影网 |网站地图 

Copyright © 2015-2019 Comsenz Inc.  Template by 蓝光电影论坛 All Rights Reserved.

Powered by 蓝光电影网 X3.4

特别声明:本站所有资源均由网上收集而来,版权归原影音公司所有,如果侵犯了你的权益,请通知我们,我们会及时删除侵权内容.

快速回复 返回顶部 返回列表