找回密码

蓝光电影网

查看: 202|回复: 8

[动作片] 狙击速递/外国人 The.Foreigner.2003.1080p.AMZN.WEBRip.DD5.1.x264-FGT 6.66GB

[复制链接]

 成长值: 15255

发表于 2020-7-31 20:21:28 | 显示全部楼层 |阅读模式
狙击速递/外国人 The.Foreigner.2003.1080p.AMZN.WEBRip.DD5.1.x264-FGT 6.66GB-1.jpeg

◎译  名 狙击速递 / 外国人
◎片  名 The Foreigner
◎年  代 2003
◎产  地 美国 / 波兰
◎类  别 动作
◎语  言 英语 / 丹麦语 / 德语 / 波兰语
◎上映日期 2003-01-28
◎IMDb评分  3.4/10 from 6225 users
◎IMDb链接  https://www.imdb.com/title/tt0312700
◎豆瓣评分 5.2/10 from 316 users
◎豆瓣链接 https://movie.douban.com/subject/1305137/
◎片  长 96 分钟
◎导  演 迈克尔·奥布洛维奇 Michael Oblowitz
◎编  剧 Darren O. Campbell
◎主  演 史蒂文·席格 Steven Seagal
       麦克斯·瑞恩 Max Ryan
       哈里·范·戈库姆 Harry Van Gorkum
       杰弗里·皮尔斯 Jeffrey Pierce
       Anna-Louise Plowman
       谢尔曼·奥古斯图斯 Sherman Augustus
       Gary Raymond
       Philip Dunbar
       Izabela Okrasa
       Grzegorz Kowalczyk
       Dianna Camacho
       道比·欧帕瑞 Deobia Oparei
       Grzegorz Emanuel
       Przemyslaw Saleta
       Jan Jurewicz

◎标  签 动作 | 美国 | 美国电影 | StevenSeagal | 犯罪 | 暴力 | 史蒂文·席格 | 电影
◎简  介

  
  一个委托人受人之托将一个包裹从法国带到美国,但没想到许多人都想得到那个包裹,抢夺包裹的大战即将展开,你争我夺,尔虞我诈斗智斗勇的精采剧情,究竟有什么内幕引起众人的争夺战?两国之间又有什么致命危机?史蒂芬席格要如何再次化险为夷?
  1. Video
  2. ID                                       : 1
  3. Format                                   : AVC
  4. Format/Info                              : Advanced Video Codec
  5. Format profile                           : [email protected]
  6. Format settings                          : CABAC / 4 Ref Frames
  7. Format settings, CABAC                   : Yes
  8. Format settings, Reference frames        : 4 frames
  9. Codec ID                                 : V_MPEG4/ISO/AVC
  10. Duration                                 : 1 h 35 min
  11. Bit rate mode                            : Constant
  12. Bit rate                                 : 10 000 kb/s
  13. Width                                    : 1 920 pixels
  14. Height                                   : 1 080 pixels
  15. Display aspect ratio                     : 16:9
  16. Frame rate mode                          : Constant
  17. Frame rate                               : 23.976 (24000/1001/189150) FPS
  18. Color space                              : YUV
  19. Chroma subsampling                       : 4:2:0
  20. Bit depth                                : 8 bits
  21. Scan type                                : Progressive
  22. Bits/(Pixel*Frame)                       : 0.201
  23. Stream size                              : 6.40 GiB (96%)
  24. Title                                    : The.Foreigner.2003.1080p.AMZN.WEBRip.DD5.1.x264-FGT
  25. Language                                 : English
  26. Default                                  : Yes
  27. Forced                                   : No
  28. Color range                              : Limited
  29. Color primaries                          : BT.709
  30. Transfer characteristics                 : BT.709
  31. Matrix coefficients                      : BT.709
  32. Audio
  33. ID                                       : 2
  34. Format                                   : AC-3
  35. Format/Info                              : Audio Coding 3
  36. Commercial name                          : Dolby Digital
  37. Codec ID                                 : A_AC3
  38. Duration                                 : 1 h 35 min
  39. Bit rate mode                            : Constant
  40. Bit rate                                 : 384 kb/s
  41. Channel(s)                               : 6 channels
  42. Channel layout                           : L R C LFE Ls Rs
  43. Sampling rate                            : 48.0 kHz
  44. Frame rate                               : 31.250 FPS (1536 SPF)
  45. Bit depth                                : 16 bits
  46. Compression mode                         : Lossy
  47. Stream size                              : 264 MiB (4%)
  48. Title                                    : The.Foreigner.2003.1080p.AMZN.WEBRip.DD5.1.x264-FGT
  49. Language                                 : English
  50. Service kind                             : Complete Main
  51. Default                                  : Yes
  52. Forced                                   : No
  53. Text #1
  54. ID                                       : 3
  55. Format                                   : UTF-8
  56. Codec ID                                 : S_TEXT/UTF8
  57. Codec ID/Info                            : UTF-8 Plain Text
  58. Duration                                 : 1 h 30 min
  59. Bit rate                                 : 50 b/s
  60. Count of elements                        : 1196
  61. Stream size                              : 33.3 KiB (0%)
  62. Language                                 : English
  63. Default                                  : Yes
  64. Forced                                   : No
  65. Text #2
  66. ID                                       : 4
  67. Format                                   : UTF-8
  68. Codec ID                                 : S_TEXT/UTF8
  69. Codec ID/Info                            : UTF-8 Plain Text
  70. Duration                                 : 1 h 31 min
  71. Bit rate                                 : 51 b/s
  72. Count of elements                        : 1274
  73. Stream size                              : 34.8 KiB (0%)
  74. Title                                    : SDH
  75. Language                                 : English
  76. Default                                  : No
  77. Forced                                   : No
复制代码

狙击速递/外国人 The.Foreigner.2003.1080p.AMZN.WEBRip.DD5.1.x264-FGT 6.66GB-2.png
狙击速递/外国人 The.Foreigner.2003.1080p.AMZN.WEBRip.DD5.1.x264-FGT 6.66GB-3.png
狙击速递/外国人 The.Foreigner.2003.1080p.AMZN.WEBRip.DD5.1.x264-FGT 6.66GB-4.png






回复

使用道具 举报

 成长值: 4600

发表于 2020-7-31 22:33:19 | 显示全部楼层
太好啦&萬分感謝版主的無私發佈分享%
回复 支持 反对

使用道具 举报

发表于 7 天前 | 显示全部楼层

这东西我收了!谢谢楼主!蓝光电影网真好!
回复 支持 反对

使用道具 举报

发表于 7 天前 | 显示全部楼层

既然你诚信诚意的推荐了,那我就勉为其难的看看吧!蓝光电影网不走平凡路。
回复 支持 反对

使用道具 举报

发表于 6 天前 | 显示全部楼层
谢谢楼主!蓝光电影网真好!
回复 支持 反对

使用道具 举报

发表于 6 天前 | 显示全部楼层
这东西我收了!谢谢楼主!蓝光电影网真好!
回复 支持 反对

使用道具 举报

已抛锚 成长值: 300

发表于 5 天前 | 显示全部楼层
楼主发贴辛苦了,谢谢楼主分享!我觉得蓝光电影网是注册对了!
回复 支持 反对

使用道具 举报

 成长值: 3925

发表于 5 天前 | 显示全部楼层
谢谢楼主无私分享。
回复 支持 反对

使用道具 举报

发表于 5 天前 | 显示全部楼层
楼主发贴辛苦了,谢谢楼主分享!我觉得蓝光电影网是注册对了!
回复 支持 反对

使用道具 举报

懒得打字嘛,点击右侧快捷回复 【右侧内容,后台自定义】
您需要登录后才可以回帖 登录 | 立即加入

本版积分规则

现在加入蓝光电影网,注册一个账号
上个主题 下个主题 快速回复 收藏帖子 返回列表 客服中心 搜索

手机版|小黑屋| 蓝光电影网 |网站地图 

Copyright © 2015-2019 Comsenz Inc.  Template by 蓝光电影论坛 All Rights Reserved.

Powered by 蓝光电影网 X3.4

特别声明:本站所有资源均由网上收集而来,版权归原影音公司所有,如果侵犯了你的权益,请通知我们,我们会及时删除侵权内容.

快速回复 返回顶部 返回列表