找回密码

蓝光电影网

查看: 198|回复: 2

[动作片] 幽冥/幽灵空间 Spectral.2016.1080p.NF.WEBRip.DD5.1.x264-NTG 3.61GB

[复制链接]

 成长值: 15255

发表于 2020-7-31 20:21:24 | 显示全部楼层 |阅读模式
幽冥/幽灵空间 Spectral.2016.1080p.NF.WEBRip.DD5.1.x264-NTG 3.61GB-1.jpeg

◎译  名 幽冥 / 幽灵空间(台)
◎片  名 Spectral
◎年  代 2016
◎产  地 美国
◎类  别 动作 / 科幻 / 战争
◎语  言 英语 / 俄语 / 罗马尼亚语
◎上映日期 2016-12-09(美国)
◎IMDb评分  6.3/10 from 49770 users
◎IMDb链接  https://www.imdb.com/title/tt2106651
◎豆瓣评分 7.2/10 from 40783 users
◎豆瓣链接 https://movie.douban.com/subject/20514871/
◎片  长 107分钟
◎导  演 尼克·马蒂厄 Nic Mathieu
◎编  剧 伊恩·弗里德 Ian Fried / 尼克·马蒂厄 Nic Mathieu / 乔治·诺非 George Nolfi
◎主  演 克莱恩·克劳福德 Clayne Crawford
       艾米莉·莫迪默 Emily Mortimer
       詹姆斯·戴尔 James Badge Dale
       马克斯·马蒂尼 Max Martini
       布鲁斯·格林伍德 Bruce Greenwood
       瑞安·罗宾斯 Ryan Robbins
       乌苏拉·帕克 Ursula Parker
       科里·哈德里克 Cory Hardrict
       冈萨洛·门内德斯 Gonzalo Menendez
       吉米·耶肯博拉 Jimmy Akingbola
       路易斯·小泽·张简 Louis Ozawa Changchien
       戴兰·史密斯 Dylan Smith
       米克洛什·班亚义 Miklós Bányai
       詹姆斯·D·德弗 James D. Dever
       罗伊斯·皮尔逊 Royce Pierreson

◎标  签 科幻 | 美国 | 战争 | 动作 | 战斗 | Netflix | 悬疑 | 2016
◎简  介

  
  讲述了一个美国国防部高级研究计划局科学家接受一项致命任务,带领一队精挑细选的三角洲部队士兵进驻一个被战争摧毁的城市,这里游荡着被称为“幽冥”的神秘幽灵,它们无形无色,能在不经意间造成大规模的伤亡。
  1. Video
  2. ID                                       : 1
  3. Format                                   : AVC
  4. Format/Info                              : Advanced Video Codec
  5. Format profile                           : [email protected]
  6. Format settings                          : CABAC / 3 Ref Frames
  7. Format settings, CABAC                   : Yes
  8. Format settings, Reference frames        : 3 frames
  9. Codec ID                                 : V_MPEG4/ISO/AVC
  10. Duration                                 : 1 h 48 min
  11. Bit rate mode                            : Variable
  12. Bit rate                                 : 4 420 kb/s
  13. Maximum bit rate                         : 6 630 kb/s
  14. Width                                    : 1 920 pixels
  15. Height                                   : 1 080 pixels
  16. Display aspect ratio                     : 16:9
  17. Frame rate mode                          : Constant
  18. Frame rate                               : 24.000 FPS
  19. Color space                              : YUV
  20. Chroma subsampling                       : 4:2:0
  21. Bit depth                                : 8 bits
  22. Scan type                                : Progressive
  23. Bits/(Pixel*Frame)                       : 0.089
  24. Stream size                              : 3.25 GiB (90%)
  25. Writing library                          : x264 core 118
  26. Encoding settings                        : cabac=1 / ref=3 / deblock=1:0:0 / analyse=0x1:0x111 / me=umh / subme=10 / psy=1 / psy_rd=1.00:0.00 / mixed_ref=1 / me_range=24 / chroma_me=1 / trellis=2 / 8x8dct=0 / cqm=0 / deadzone=21,11 / fast_pskip=1 / chroma_qp_offset=-2 / threads=6 / sliced_threads=0 / nr=0 / decimate=1 / interlaced=0 / bluray_compat=0 / constrained_intra=0 / bframes=2 / b_pyramid=0 / b_adapt=2 / b_bias=0 / direct=3 / weightb=1 / open_gop=0 / weightp=2 / keyint=48 / keyint_min=25 / scenecut=0 / intra_refresh=0 / rc_lookahead=0 / rc=2pass / mbtree=1 / bitrate=4420 / ratetol=1.0 / qcomp=0.50 / qpmin=6 / qpmax=51 / qpstep=4 / cplxblur=20.0 / qblur=0.5 / vbv_maxrate=6630 / vbv_bufsize=8840 / nal_hrd=vbr / ip_ratio=1.40 / aq=1:1.00
  27. Default                                  : Yes
  28. Forced                                   : No
  29. Statistics Tags Issue                    : mkvmerge v9.4.2 (\'So High\') 64bit 2017-07-14 15:37:33 / mkvmerge v9.4.2 (\'So High\') 64bit 2017-07-14 15:37:33 / UTC 2017-02-10 19:51:47
  30. FromStats_BitRate                        : 4393447
  31. FromStats_Duration                       : 01:48:08.417000000
  32. FromStats_FrameCount                     : 155722
  33. FromStats_StreamSize                     : 3563314723
  34. Audio
  35. ID                                       : 2
  36. Format                                   : AC-3
  37. Format/Info                              : Audio Coding 3
  38. Commercial name                          : Dolby Digital
  39. Codec ID                                 : A_AC3
  40. Duration                                 : 1 h 48 min
  41. Bit rate mode                            : Constant
  42. Bit rate                                 : 384 kb/s
  43. Channel(s)                               : 6 channels
  44. Channel layout                           : L R C LFE Ls Rs
  45. Sampling rate                            : 48.0 kHz
  46. Frame rate                               : 31.250 FPS (1536 SPF)
  47. Bit depth                                : 16 bits
  48. Compression mode                         : Lossy
  49. Stream size                              : 297 MiB (8%)
  50. Language                                 : English
  51. Service kind                             : Complete Main
  52. Default                                  : Yes
  53. Forced                                   : No
  54. Encoded date                             : UTC 2017-02-10 19:51:47
  55. Statistics Tags Issue                    : mkvmerge v9.4.2 (\'So High\') 64bit 2017-07-14 15:37:33 / mkvmerge v9.4.2 (\'So High\') 64bit 2017-07-14 15:37:33 / UTC 2017-02-10 19:51:47
  56. FromStats_BitRate                        : 384000
  57. FromStats_Duration                       : 01:48:08.480000000
  58. FromStats_FrameCount                     : 202765
  59. FromStats_StreamSize                     : 311447040
  60. Text #1
  61. ID                                       : 3
  62. Format                                   : UTF-8
  63. Codec ID                                 : S_TEXT/UTF8
  64. Codec ID/Info                            : UTF-8 Plain Text
  65. Title                                    : English
  66. Language                                 : English
  67. Default                                  : No
  68. Forced                                   : No
  69. Statistics Tags Issue                    : mkvmerge v9.4.2 (\'So High\') 64bit 2017-07-14 15:37:33 / mkvmerge v9.4.2 (\'So High\') 64bit 2017-07-14 15:37:33 / UTC 2017-02-10 19:51:47
  70. FromStats_BitRate                        : 54
  71. FromStats_Duration                       : 01:47:08.800000000
  72. FromStats_FrameCount                     : 1245
  73. FromStats_StreamSize                     : 44194
  74. Text #2
  75. ID                                       : 4
  76. Format                                   : UTF-8
  77. Codec ID                                 : S_TEXT/UTF8
  78. Codec ID/Info                            : UTF-8 Plain Text
  79. Title                                    : Spanish
  80. Language                                 : Spanish
  81. Default                                  : No
  82. Forced                                   : No
  83. Statistics Tags Issue                    : mkvmerge v9.4.2 (\'So High\') 64bit 2017-07-14 15:37:33 / mkvmerge v9.4.2 (\'So High\') 64bit 2017-07-14 15:37:33 / UTC 2017-02-10 19:51:47
  84. FromStats_BitRate                        : 52
  85. FromStats_Duration                       : 01:46:42.633000000
  86. FromStats_FrameCount                     : 1059
  87. FromStats_StreamSize                     : 42173
  88. Text #3
  89. ID                                       : 5
  90. Format                                   : UTF-8
  91. Codec ID                                 : S_TEXT/UTF8
  92. Codec ID/Info                            : UTF-8 Plain Text
  93. Title                                    : French
  94. Language                                 : French
  95. Default                                  : No
  96. Forced                                   : No
  97. Statistics Tags Issue                    : mkvmerge v9.4.2 (\'So High\') 64bit 2017-07-14 15:37:33 / mkvmerge v9.4.2 (\'So High\') 64bit 2017-07-14 15:37:33 / UTC 2017-02-10 19:51:47
  98. FromStats_BitRate                        : 45
  99. FromStats_Duration                       : 01:46:42.633000000
  100. FromStats_FrameCount                     : 1047
  101. FromStats_StreamSize                     : 36344
  102. Text #4
  103. ID                                       : 6
  104. Format                                   : UTF-8
  105. Codec ID                                 : S_TEXT/UTF8
  106. Codec ID/Info                            : UTF-8 Plain Text
  107. Title                                    : German
  108. Language                                 : German
  109. Default                                  : No
  110. Forced                                   : No
  111. Statistics Tags Issue                    : mkvmerge v9.4.2 (\'So High\') 64bit 2017-07-14 15:37:33 / mkvmerge v9.4.2 (\'So High\') 64bit 2017-07-14 15:37:33 / UTC 2017-02-10 19:51:47
  112. FromStats_BitRate                        : 49
  113. FromStats_Duration                       : 01:46:42.633000000
  114. FromStats_FrameCount                     : 1063
  115. FromStats_StreamSize                     : 39797
  116. Text #5
  117. ID                                       : 7
  118. Format                                   : UTF-8
  119. Codec ID                                 : S_TEXT/UTF8
  120. Codec ID/Info                            : UTF-8 Plain Text
  121. Title                                    : Italian
  122. Language                                 : Italian
  123. Default                                  : No
  124. Forced                                   : No
  125. Statistics Tags Issue                    : mkvmerge v9.4.2 (\'So High\') 64bit 2017-07-14 15:37:33 / mkvmerge v9.4.2 (\'So High\') 64bit 2017-07-14 15:37:33 / UTC 2017-02-10 19:51:47
  126. FromStats_BitRate                        : 48
  127. FromStats_Duration                       : 01:46:42.633000000
  128. FromStats_FrameCount                     : 1092
  129. FromStats_StreamSize                     : 39033
复制代码

幽冥/幽灵空间 Spectral.2016.1080p.NF.WEBRip.DD5.1.x264-NTG 3.61GB-2.png
幽冥/幽灵空间 Spectral.2016.1080p.NF.WEBRip.DD5.1.x264-NTG 3.61GB-3.png






回复

使用道具 举报

发表于 7 天前 | 显示全部楼层
楼主发贴辛苦了,谢谢楼主分享!我觉得蓝光电影网是注册对了!
回复 支持 反对

使用道具 举报

发表于 4 天前 | 显示全部楼层
感谢LZ分享,就是币不够了!!
回复 支持 反对

使用道具 举报

懒得打字嘛,点击右侧快捷回复 【右侧内容,后台自定义】
您需要登录后才可以回帖 登录 | 立即加入

本版积分规则

现在加入蓝光电影网,注册一个账号
上个主题 下个主题 快速回复 收藏帖子 返回列表 客服中心 搜索

手机版|小黑屋| 蓝光电影网 |网站地图 

Copyright © 2015-2019 Comsenz Inc.  Template by 蓝光电影论坛 All Rights Reserved.

Powered by 蓝光电影网 X3.4

特别声明:本站所有资源均由网上收集而来,版权归原影音公司所有,如果侵犯了你的权益,请通知我们,我们会及时删除侵权内容.

快速回复 返回顶部 返回列表