找回密码

蓝光电影网

查看: 1477|回复: 32

[2160p-WEB] 第零军团/零号团队 Troop.Zero.2019.HDR.2160p.WEB.h265-WATCHER 10.41GB

[复制链接]

 成长值: 15255

发表于 2020-7-31 11:43:10 | 显示全部楼层 |阅读模式


◎译  名 第零军团 / 零号团队
◎片  名 Troop Zero
◎年  代 2019
◎产  地 美国
◎类  别 剧情 / 喜剧 / 家庭
◎语  言 英语
◎上映日期 2019-02-01(圣丹斯电影节首映) / 2020-01-17(美国)
◎IMDb评分  6.9/10 from 7015 users
◎IMDb链接  https://www.imdb.com/title/tt2404465
◎豆瓣评分 6.7/10 from 609 users
◎豆瓣链接 https://movie.douban.com/subject/21349769/
◎片  长 94分钟
◎导  演 伯特与伯蒂 Bert & Bertie
◎编  剧 露西·阿里巴 Lucy Alibar
◎主  演 麦肯娜·格瑞丝 Mckenna Grace
       艾莉森·珍妮 Allison Janney
       艾迪·帕特森 Edi Patterson
       维奥拉·戴维斯 Viola Davis
       吉姆·加菲根 Jim Gaffigan
       迈克·艾普斯 Mike Epps
       查理·肖特韦尔 Charlie Shotwell
       小埃里克·贝尔 Eric Bell Jr.
       格温德琳·穆兰巴 Gwendolyn Mulamba
       戈登·德克海默 Gordon Dexheimer
       Ashley Brooke
       Maureen Brennan
       Rebecca Chulew
       Johanna Colón
       Milan Ray
       Elton LeBlanc
       Kenneth Wayne Bradley

◎标  签 成长 | 儿童 | 美国 | 喜剧 | 剧情 | 麦肯娜·格瑞丝 | 2019 | 美国电影
◎简  介

  
  热爱科学的小女主角(麦肯纳·格蕾丝饰演)将领导一群格格不入的孩子们参加女子童子军大赛,赢得才艺表演秀后录制美国太空总署的金唱片,一群小朋友也从过程中培养出长达一辈子的深刻友谊。
  1. Video
  2. ID                                       : 27
  3. Format                                   : HEVC
  4. Format/Info                              : High Efficiency Video Coding
  5. Format profile                           : Main [email protected]@Main
  6. HDR format                               : SMPTE ST 2094 App 4, Version 0
  7. Codec ID                                 : V_MPEGH/ISO/HEVC
  8. Duration                                 : 1 h 37 min
  9. Bit rate                                 : 14.5 Mb/s
  10. Width                                    : 3 840 pixels
  11. Height                                   : 1 600 pixels
  12. Display aspect ratio                     : 2.40:1
  13. Frame rate mode                          : Constant
  14. Frame rate                               : 23.976 (24000/1001/189150) FPS
  15. Standard                                 : NTSC
  16. Color space                              : YUV
  17. Chroma subsampling                       : 4:2:0 (Type 2)
  18. Bit depth                                : 10 bits
  19. Bits/(Pixel*Frame)                       : 0.098
  20. Stream size                              : 9.86 GiB (96%)
  21. Default                                  : Yes
  22. Forced                                   : No
  23. Color range                              : Limited
  24. Color primaries                          : BT.2020
  25. Transfer characteristics                 : PQ
  26. Matrix coefficients                      : BT.2020 non-constant
  27. Mastering display color primaries        : Display P3
  28. Mastering display luminance              : min: 0.0001 cd/m2, max: 1000 cd/m2
  29. Maximum Content Light Level              : 708 cd/m2
  30. Maximum Frame-Average Light Level        : 135 cd/m2
  31. Audio
  32. ID                                       : 1
  33. Format                                   : E-AC-3
  34. Format/Info                              : Enhanced AC-3
  35. Commercial name                          : Dolby Digital Plus
  36. Codec ID                                 : A_EAC3
  37. Duration                                 : 1 h 37 min
  38. Bit rate mode                            : Constant
  39. Bit rate                                 : 640 kb/s
  40. Channel(s)                               : 6 channels
  41. Channel layout                           : L R C LFE Ls Rs
  42. Sampling rate                            : 48.0 kHz
  43. Frame rate                               : 31.250 FPS (1536 SPF)
  44. Compression mode                         : Lossy
  45. Stream size                              : 446 MiB (4%)
  46. Title                                    : English
  47. Language                                 : English
  48. Service kind                             : Complete Main
  49. Default                                  : Yes
  50. Forced                                   : No
  51. Text #1
  52. ID                                       : 2
  53. Format                                   : UTF-8
  54. Codec ID                                 : S_TEXT/UTF8
  55. Codec ID/Info                            : UTF-8 Plain Text
  56. Duration                                 : 1 h 33 min
  57. Bit rate                                 : 82 b/s
  58. Count of elements                        : 1931
  59. Stream size                              : 56.5 KiB (0%)
  60. Title                                    : English [SDH]
  61. Language                                 : English
  62. Default                                  : No
  63. Forced                                   : No
  64. Text #2
  65. ID                                       : 3
  66. Format                                   : UTF-8
  67. Codec ID                                 : S_TEXT/UTF8
  68. Codec ID/Info                            : UTF-8 Plain Text
  69. Duration                                 : 1 h 32 min
  70. Bit rate                                 : 62 b/s
  71. Count of elements                        : 1301
  72. Stream size                              : 42.6 KiB (0%)
  73. Title                                    : Castilian [Full]
  74. Language                                 : Spanish
  75. Default                                  : No
  76. Forced                                   : No
  77. Text #3
  78. ID                                       : 4
  79. Format                                   : UTF-8
  80. Codec ID                                 : S_TEXT/UTF8
  81. Codec ID/Info                            : UTF-8 Plain Text
  82. Duration                                 : 1 h 32 min
  83. Bit rate                                 : 58 b/s
  84. Count of elements                        : 1279
  85. Stream size                              : 39.5 KiB (0%)
  86. Title                                    : Spanish [Full]
  87. Language                                 : Spanish
  88. Default                                  : No
  89. Forced                                   : No
  90. Text #4
  91. ID                                       : 5
  92. Format                                   : UTF-8
  93. Codec ID                                 : S_TEXT/UTF8
  94. Codec ID/Info                            : UTF-8 Plain Text
  95. Duration                                 : 1 h 32 min
  96. Bit rate                                 : 54 b/s
  97. Count of elements                        : 1284
  98. Stream size                              : 36.9 KiB (0%)
  99. Title                                    : French [Full]
  100. Language                                 : French
  101. Default                                  : No
  102. Forced                                   : No
  103. Text #5
  104. ID                                       : 6
  105. Format                                   : UTF-8
  106. Codec ID                                 : S_TEXT/UTF8
  107. Codec ID/Info                            : UTF-8 Plain Text
  108. Duration                                 : 1 h 32 min
  109. Bit rate                                 : 57 b/s
  110. Count of elements                        : 1300
  111. Stream size                              : 39.3 KiB (0%)
  112. Title                                    : German [Full]
  113. Language                                 : German
  114. Default                                  : No
  115. Forced                                   : No
  116. Text #6
  117. ID                                       : 7
  118. Format                                   : UTF-8
  119. Codec ID                                 : S_TEXT/UTF8
  120. Codec ID/Info                            : UTF-8 Plain Text
  121. Duration                                 : 1 h 32 min
  122. Bit rate                                 : 55 b/s
  123. Count of elements                        : 1300
  124. Stream size                              : 37.4 KiB (0%)
  125. Title                                    : Italian [Full]
  126. Language                                 : Italian
  127. Default                                  : No
  128. Forced                                   : No
  129. Text #7
  130. ID                                       : 8
  131. Format                                   : UTF-8
  132. Codec ID                                 : S_TEXT/UTF8
  133. Codec ID/Info                            : UTF-8 Plain Text
  134. Duration                                 : 1 h 32 min
  135. Bit rate                                 : 59 b/s
  136. Count of elements                        : 1302
  137. Stream size                              : 40.5 KiB (0%)
  138. Title                                    : Brazilian Portuguese [Full]
  139. Language                                 : Portuguese
  140. Default                                  : No
  141. Forced                                   : No
  142. Text #8
  143. ID                                       : 9
  144. Format                                   : UTF-8
  145. Codec ID                                 : S_TEXT/UTF8
  146. Codec ID/Info                            : UTF-8 Plain Text
  147. Duration                                 : 1 h 32 min
  148. Bit rate                                 : 59 b/s
  149. Count of elements                        : 1304
  150. Stream size                              : 40.1 KiB (0%)
  151. Title                                    : Polish [Full]
  152. Language                                 : Polish
  153. Default                                  : No
  154. Forced                                   : No
  155. Text #9
  156. ID                                       : 10
  157. Format                                   : UTF-8
  158. Codec ID                                 : S_TEXT/UTF8
  159. Codec ID/Info                            : UTF-8 Plain Text
  160. Duration                                 : 1 h 32 min
  161. Bit rate                                 : 60 b/s
  162. Count of elements                        : 1302
  163. Stream size                              : 41.3 KiB (0%)
  164. Title                                    : Turkish [Full]
  165. Language                                 : Turkish
  166. Default                                  : No
  167. Forced                                   : No
  168. Text #10
  169. ID                                       : 11
  170. Format                                   : UTF-8
  171. Codec ID                                 : S_TEXT/UTF8
  172. Codec ID/Info                            : UTF-8 Plain Text
  173. Duration                                 : 1 h 32 min
  174. Bit rate                                 : 59 b/s
  175. Count of elements                        : 1067
  176. Stream size                              : 40.2 KiB (0%)
  177. Title                                    : Swedish [Full]
  178. Language                                 : Swedish
  179. Default                                  : No
  180. Forced                                   : No
  181. Text #11
  182. ID                                       : 12
  183. Format                                   : UTF-8
  184. Codec ID                                 : S_TEXT/UTF8
  185. Codec ID/Info                            : UTF-8 Plain Text
  186. Duration                                 : 1 h 32 min
  187. Bit rate                                 : 62 b/s
  188. Count of elements                        : 1302
  189. Stream size                              : 42.1 KiB (0%)
  190. Title                                    : Danish [Full]
  191. Language                                 : Danish
  192. Default                                  : No
  193. Forced                                   : No
  194. Text #12
  195. ID                                       : 13
  196. Format                                   : UTF-8
  197. Codec ID                                 : S_TEXT/UTF8
  198. Codec ID/Info                            : UTF-8 Plain Text
  199. Duration                                 : 1 h 32 min
  200. Bit rate                                 : 58 b/s
  201. Count of elements                        : 1257
  202. Stream size                              : 40.0 KiB (0%)
  203. Title                                    : Finnish [Full]
  204. Language                                 : Finnish
  205. Default                                  : No
  206. Forced                                   : No
  207. Text #13
  208. ID                                       : 14
  209. Format                                   : UTF-8
  210. Codec ID                                 : S_TEXT/UTF8
  211. Codec ID/Info                            : UTF-8 Plain Text
  212. Duration                                 : 1 h 32 min
  213. Bit rate                                 : 54 b/s
  214. Count of elements                        : 1228
  215. Stream size                              : 37.3 KiB (0%)
  216. Title                                    : Dutch [Full]
  217. Language                                 : Dutch
  218. Default                                  : No
  219. Forced                                   : No
  220. Text #14
  221. ID                                       : 15
  222. Format                                   : UTF-8
  223. Codec ID                                 : S_TEXT/UTF8
  224. Codec ID/Info                            : UTF-8 Plain Text
  225. Duration                                 : 1 h 32 min
  226. Bit rate                                 : 54 b/s
  227. Count of elements                        : 1005
  228. Stream size                              : 37.2 KiB (0%)
  229. Title                                    : Norwegian (Bokm?l) [Full]
  230. Language                                 : Norwegian Bokmal
  231. Default                                  : No
  232. Forced                                   : No
  233. Text #15
  234. ID                                       : 16
  235. Format                                   : UTF-8
  236. Codec ID                                 : S_TEXT/UTF8
  237. Codec ID/Info                            : UTF-8 Plain Text
  238. Duration                                 : 1 h 32 min
  239. Bit rate                                 : 95 b/s
  240. Count of elements                        : 1304
  241. Stream size                              : 64.9 KiB (0%)
  242. Title                                    : Russian [Full]
  243. Language                                 : Russian
  244. Default                                  : No
  245. Forced                                   : No
  246. Text #16
  247. ID                                       : 17
  248. Format                                   : UTF-8
  249. Codec ID                                 : S_TEXT/UTF8
  250. Codec ID/Info                            : UTF-8 Plain Text
  251. Duration                                 : 1 h 32 min
  252. Bit rate                                 : 94 b/s
  253. Count of elements                        : 1304
  254. Stream size                              : 64.2 KiB (0%)
  255. Title                                    : Arabic [Full]
  256. Language                                 : Arabic
  257. Default                                  : No
  258. Forced                                   : No
  259. Text #17
  260. ID                                       : 18
  261. Format                                   : UTF-8
  262. Codec ID                                 : S_TEXT/UTF8
  263. Codec ID/Info                            : UTF-8 Plain Text
  264. Duration                                 : 1 h 32 min
  265. Bit rate                                 : 160 b/s
  266. Count of elements                        : 1314
  267. Stream size                              : 109 KiB (0%)
  268. Title                                    : Hindi [Full]
  269. Language                                 : Hindi
  270. Default                                  : No
  271. Forced                                   : No
  272. Text #18
  273. ID                                       : 19
  274. Format                                   : UTF-8
  275. Codec ID                                 : S_TEXT/UTF8
  276. Codec ID/Info                            : UTF-8 Plain Text
  277. Duration                                 : 1 h 32 min
  278. Bit rate                                 : 168 b/s
  279. Count of elements                        : 1304
  280. Stream size                              : 114 KiB (0%)
  281. Title                                    : Tamil [Full]
  282. Language                                 : Tamil
  283. Default                                  : No
  284. Forced                                   : No
  285. Text #19
  286. ID                                       : 20
  287. Format                                   : UTF-8
  288. Codec ID                                 : S_TEXT/UTF8
  289. Codec ID/Info                            : UTF-8 Plain Text
  290. Duration                                 : 1 h 32 min
  291. Bit rate                                 : 166 b/s
  292. Count of elements                        : 1304
  293. Stream size                              : 113 KiB (0%)
  294. Title                                    : Telugu [Full]
  295. Language                                 : Telugu
  296. Default                                  : No
  297. Forced                                   : No
  298. Text #20
  299. ID                                       : 21
  300. Format                                   : UTF-8
  301. Codec ID                                 : S_TEXT/UTF8
  302. Codec ID/Info                            : UTF-8 Plain Text
  303. Duration                                 : 1 h 32 min
  304. Bit rate                                 : 61 b/s
  305. Count of elements                        : 1308
  306. Stream size                              : 41.4 KiB (0%)
  307. Title                                    : Indonesian [Full]
  308. Language                                 : Indonesian
  309. Default                                  : No
  310. Forced                                   : No
  311. Text #21
  312. ID                                       : 22
  313. Format                                   : UTF-8
  314. Codec ID                                 : S_TEXT/UTF8
  315. Codec ID/Info                            : UTF-8 Plain Text
  316. Duration                                 : 1 h 32 min
  317. Bit rate                                 : 155 b/s
  318. Count of elements                        : 1304
  319. Stream size                              : 106 KiB (0%)
  320. Title                                    : Thai [Full]
  321. Language                                 : Thai
  322. Default                                  : No
  323. Forced                                   : No
  324. Text #22
  325. ID                                       : 23
  326. Format                                   : UTF-8
  327. Codec ID                                 : S_TEXT/UTF8
  328. Codec ID/Info                            : UTF-8 Plain Text
  329. Duration                                 : 1 h 32 min
  330. Bit rate                                 : 64 b/s
  331. Count of elements                        : 1304
  332. Stream size                              : 44.0 KiB (0%)
  333. Title                                    : Korean [Full]
  334. Language                                 : Korean
  335. Default                                  : No
  336. Forced                                   : No
  337. Text #23
  338. ID                                       : 24
  339. Format                                   : UTF-8
  340. Codec ID                                 : S_TEXT/UTF8
  341. Codec ID/Info                            : UTF-8 Plain Text
  342. Duration                                 : 1 h 32 min
  343. Bit rate                                 : 60 b/s
  344. Count of elements                        : 1304
  345. Stream size                              : 40.9 KiB (0%)
  346. Title                                    : Chinese (Simplified) [Full]
  347. Language                                 : Chinese
  348. Default                                  : No
  349. Forced                                   : No
  350. Text #24
  351. ID                                       : 25
  352. Format                                   : UTF-8
  353. Codec ID                                 : S_TEXT/UTF8
  354. Codec ID/Info                            : UTF-8 Plain Text
  355. Duration                                 : 1 h 32 min
  356. Bit rate                                 : 55 b/s
  357. Count of elements                        : 1306
  358. Stream size                              : 37.6 KiB (0%)
  359. Title                                    : Chinese (Traditional) [Full]
  360. Language                                 : Chinese
  361. Default                                  : No
  362. Forced                                   : No
  363. Text #25
  364. ID                                       : 26
  365. Format                                   : UTF-8
  366. Codec ID                                 : S_TEXT/UTF8
  367. Codec ID/Info                            : UTF-8 Plain Text
  368. Duration                                 : 1 h 35 min
  369. Bit rate                                 : 50 b/s
  370. Count of elements                        : 1392
  371. Stream size                              : 35.4 KiB (0%)
  372. Title                                    : Japanese [Full]
  373. Language                                 : Japanese
  374. Default                                  : No
  375. Forced                                   : No
  376. Menu
  377. 00:00:00.000                             : en:Studio Logos
  378. 00:00:42.000                             : en:Opening Credits
  379. 00:01:46.000                             : en:Intro to Christmas
  380. 00:07:26.000                             : en:A chat with Miss Raylee
  381. 00:09:52.000                             : en:Warnings
  382. 00:11:50.000                             : en:A chance to work with NASA
  383. 00:17:57.000                             : en:Christmas is determined
  384. 00:26:45.000                             : en:Welcome to Birdie Scouting
  385. 00:32:35.000                             : en:Learning new skills
  386. 00:41:31.000                             : en:Bake a cake badge
  387. 00:48:20.000                             : en:Surviving the wilderness badge
  388. 00:56:43.000                             : en:Dashed dreams
  389. 01:01:06.000                             : en:Renewed hope
  390. 01:07:51.000                             : en:Arrival at the Jamboree
  391. 01:14:01.000                             : en:Jamboree performances
  392. 01:24:17.000                             : en:The winner is announced
  393. 01:29:02.000                             : en:Be permanent
  394. 01:33:11.000                             : en:End Credits
复制代码







回复

使用道具 举报

发表于 7 天前 | 显示全部楼层

这个帖子不回对不起自己!我想我是一天也不能离开蓝光电影网
回复 支持 反对

使用道具 举报

发表于 7 天前 | 显示全部楼层
箩 利 资 原【 w w w . m 9 n . m e
回复 支持 反对

使用道具 举报

发表于 7 天前 | 显示全部楼层

其实我一直觉得楼主的品味不错!呵呵!蓝光电影网太棒了!
回复 支持 反对

使用道具 举报

 成长值: 4600

发表于 7 天前 | 显示全部楼层
太好啦&萬分感謝版主的無私發佈分享%
回复 支持 反对

使用道具 举报

发表于 7 天前 | 显示全部楼层
楼主发贴辛苦了,谢谢楼主分享!我觉得蓝光电影网是注册对了!
回复 支持 反对

使用道具 举报

发表于 7 天前 | 显示全部楼层
楼主发贴辛苦了,谢谢楼主分享!我觉得蓝光电影网是注册对了!
回复 支持 反对

使用道具 举报

发表于 7 天前 | 显示全部楼层

楼主太厉害了!楼主,电影应该很好看我觉得蓝光电影网真是个好地方!
回复 支持 反对

使用道具 举报

发表于 7 天前 | 显示全部楼层
谢谢分享好资源
回复 支持 反对

使用道具 举报

发表于 7 天前 | 显示全部楼层

我看不错噢 谢谢楼主!蓝光电影网越来越好!
回复 支持 反对

使用道具 举报

懒得打字嘛,点击右侧快捷回复 【右侧内容,后台自定义】
您需要登录后才可以回帖 登录 | 立即加入

本版积分规则

现在加入蓝光电影网,注册一个账号
上个主题 下个主题 快速回复 收藏帖子 返回列表 客服中心 搜索

手机版|小黑屋| 蓝光电影网 |网站地图 

Copyright © 2015-2019 Comsenz Inc.  Template by 蓝光电影论坛 All Rights Reserved.

Powered by 蓝光电影网 X3.4

特别声明:本站所有资源均由网上收集而来,版权归原影音公司所有,如果侵犯了你的权益,请通知我们,我们会及时删除侵权内容.

快速回复 返回顶部 返回列表