找回密码

蓝光电影网

查看: 860|回复: 18

[2160p-WEB] 玉子 Okja.2017.2160p.NF.WEBRip.x265.10bit.SDR.DDP5.1.Atmos-NTb 14.13GB

[复制链接]

 成长值: 15255

发表于 2020-7-31 11:43:06 | 显示全部楼层 |阅读模式


◎译  名 玉子 / Okja
◎片  名 ??
◎年  代 2017
◎产  地 韩国 / 美国
◎类  别 剧情 / 动作 / 科幻 / 冒险
◎语  言 英语 / 韩语 / 西班牙语
◎上映日期 2017-05-19(戛纳电影节) / 2017-06-28(韩国)
◎IMDb评分  7.3/10 from 97834 users
◎IMDb链接  https://www.imdb.com/title/tt3967856
◎豆瓣评分 6.6/10 from 31399 users
◎豆瓣链接 https://movie.douban.com/subject/26365236/
◎片  长 120分钟
◎导  演 奉俊昊 Joon-ho Bong
◎编  剧 奉俊昊 Joon-ho Bong / 乔恩·容森 Jon Ronson
◎主  演 蒂尔达·斯文顿 Tilda Swinton
       保罗·达诺 Paul Dano
       安瑞贤 Seo-Hyun An
       边熙峰 Hie-bong Byeon
       史蒂文·元 Steven Yeun
       莉莉·柯林斯 Lily Collins
       尹宰文 Je-mun Yun
       雪莉·亨德森 Shirley Henderson
       丹尼尔·亨绍尔 Daniel Henshall
       戴文·博斯蒂克 Devon Bostick
       崔宇植 Woo-Sik Choi
       吉安卡罗·埃斯波西托 Giancarlo Esposito
       杰克·吉伦哈尔 Jake Gyllenhaal
       李静恩 Jung-eun Lee
       崔嬉序 Moon Choi
       尹敬浩 Kyung-ho Yoon
       赵莞基 Wan-gi Jo
       Michael Mitton
       凯瑟琳·柯克帕特里克 Kathryn Kirkpatrick
       李凤莲 Lee Bong-ryeon
       朴根祿 Keun-rok Park
       埃里克·德·波尔 Erik De Boer
       科里·格鲁特-安德鲁 Cory Gruter-Andrew
       Adam Auslander
       瓦里丝·阿卢瓦利亚 Waris Ahluwalia
       T. Sahara Meer
       安德烈亚斯·弗龙克 Andreas Fronk
       迈尔斯·哈姆帕斯 Myles Humphus

◎标  签 韩国 | 科幻 | 2017 | 美国 | 剧情 | 人性 | 怪兽 | 冒险
◎简  介

  
  电影讲述了小女孩美子的故事,她必须以身涉险阻止强大的跨国公司绑架自己最好的朋友 — 巨兽“玉子”。
◎获奖情况  
  第70届戛纳电影节(2017)
  主竞赛单元 金棕榈奖(提名) 奉俊昊
  1. Video
  2. ID                                       : 1
  3. Format                                   : HEVC
  4. Format/Info                              : High Efficiency Video Coding
  5. Format profile                           : Main [email protected]@High
  6. Codec ID                                 : V_MPEGH/ISO/HEVC
  7. Duration                                 : 2 h 0 min
  8. Bit rate                                 : 16.0 Mb/s
  9. Width                                    : 3 840 pixels
  10. Height                                   : 1 608 pixels
  11. Display aspect ratio                     : 2.40:1
  12. Frame rate mode                          : Constant
  13. Frame rate                               : 24.000 FPS
  14. Color space                              : YUV
  15. Chroma subsampling                       : 4:2:0
  16. Bit depth                                : 10 bits
  17. Bits/(Pixel*Frame)                       : 0.108
  18. Stream size                              : 13.5 GiB (95%)
  19. Writing library                          : x265 3.0_Audcbec33bfb0f:[Windows][GCC 8.2.1][64 bit] 10bit
  20. Encoding settings                        : cpuid=1111039 / frame-threads=4 / numa-pools=28 / wpp / no-pmode / no-pme / no-psnr / no-ssim / log-level=2 / input-csp=1 / input-res=3840x1608 / interlace=0 / total-frames=173347 / level-idc=51 / high-tier=1 / uhd-bd=0 / ref=5 / no-allow-non-conformance / repeat-headers / annexb / aud / hrd / info / hash=0 / no-temporal-layers / open-gop / min-keyint=24 / keyint=250 / gop-lookahead=0 / bframes=8 / b-adapt=2 / b-pyramid / bframe-bias=0 / rc-lookahead=40 / lookahead-slices=8 / scenecut=40 / radl=0 / no-splice / no-intra-refresh / ctu=64 / min-cu-size=8 / no-rect / no-amp / max-tu-size=32 / tu-inter-depth=4 / tu-intra-depth=4 / limit-tu=4 / rdoq-level=0 / dynamic-rd=0.00 / no-ssim-rd / signhide / no-tskip / nr-intra=0 / nr-inter=0 / no-constrained-intra / strong-intra-smoothing / max-merge=4 / limit-refs=3 / no-limit-modes / me=1 / subme=5 / merange=57 / temporal-mvp / weightp / weightb / no-analyze-src-pics / deblock=-3:-3 / no-sao / no-sao-non-deblock / rd=4 / no-early-skip / rskip / no-fast-intra / no-tskip-fast / no-cu-lossless / b-intra / no-splitrd-skip / rdpenalty=0 / psy-rd=2.00 / psy-rdoq=0.00 / no-rd-refine / no-lossless / cbqpoffs=0 / crqpoffs=0 / rc=crf / crf=19.0 / qcomp=0.60 / qpstep=4 / stats-write=0 / stats-read=0 / vbv-maxrate=160000 / vbv-bufsize=160000 / vbv-init=0.9 / crf-max=0.0 / crf-min=0.0 / ipratio=1.30 / pbratio=1.20 / aq-mode=1 / aq-strength=0.85 / no-cutree / zone-count=0 / no-strict-cbr / qg-size=32 / no-rc-grain / qpmax=69 / qpmin=0 / no-const-vbv / sar=1 / overscan=0 / videoformat=5 / range=0 / colorprim=1 / transfer=1 / colormatrix=1 / chromaloc=0 / display-window=0 / max-cll=0,0 / min-luma=0 / max-luma=1023 / log2-max-poc-lsb=8 / vui-timing-info / vui-hrd-info / slices=1 / no-opt-qp-pps / no-opt-ref-list-length-pps / no-multi-pass-opt-rps / scenecut-bias=0.05 / no-opt-cu-delta-qp / no-aq-motion / no-hdr / no-hdr-opt / no-dhdr10-opt / no-idr-recovery-sei / analysis-reuse-level=5 / scale-factor=0 / refine-intra=0 / refine-inter=0 / refine-mv=0 / refine-ctu-distortion=0 / no-limit-sao / ctu-info=0 / no-lowpass-dct / refine-analysis-type=0 / copy-pic=1 / max-ausize-factor=1.0 / no-dynamic-refine / no-single-sei / no-hevc-aq / qp-adaptation-range=1.00
  21. Default                                  : Yes
  22. Forced                                   : No
  23. Color range                              : Limited
  24. Color primaries                          : BT.709
  25. Transfer characteristics                 : BT.709
  26. Matrix coefficients                      : BT.709
  27. Audio
  28. ID                                       : 2
  29. Format                                   : E-AC-3 JOC
  30. Format/Info                              : Enhanced AC-3 with Joint Object Coding
  31. Commercial name                          : Dolby Digital Plus with Dolby Atmos
  32. Codec ID                                 : A_EAC3
  33. Duration                                 : 2 h 0 min
  34. Bit rate mode                            : Constant
  35. Bit rate                                 : 768 kb/s
  36. Channel(s)                               : 6 channels
  37. Channel layout                           : L R C LFE Ls Rs
  38. Sampling rate                            : 48.0 kHz
  39. Frame rate                               : 31.250 FPS (1536 SPF)
  40. Compression mode                         : Lossy
  41. Stream size                              : 661 MiB (5%)
  42. Language                                 : English
  43. Service kind                             : Complete Main
  44. Default                                  : Yes
  45. Forced                                   : No
  46. Complexity index                         : 16
  47. Number of dynamic objects                : 15
  48. Bed channel count                        : 1 channel
  49. Bed channel configuration                : LFE
  50. Text #1
  51. ID                                       : 3
  52. Format                                   : UTF-8
  53. Codec ID                                 : S_TEXT/UTF8
  54. Codec ID/Info                            : UTF-8 Plain Text
  55. Duration                                 : 1 h 53 min
  56. Bit rate                                 : 7 b/s
  57. Count of elements                        : 285
  58. Stream size                              : 6.55 KiB (0%)
  59. Title                                    : Forced
  60. Language                                 : English
  61. Default                                  : No
  62. Forced                                   : Yes
  63. Text #2
  64. ID                                       : 4
  65. Format                                   : UTF-8
  66. Codec ID                                 : S_TEXT/UTF8
  67. Codec ID/Info                            : UTF-8 Plain Text
  68. Duration                                 : 1 h 59 min
  69. Bit rate                                 : 51 b/s
  70. Count of elements                        : 1440
  71. Stream size                              : 44.8 KiB (0%)
  72. Title                                    : SDH
  73. Language                                 : English
  74. Default                                  : No
  75. Forced                                   : No
  76. Text #3
  77. ID                                       : 5
  78. Format                                   : UTF-8
  79. Codec ID                                 : S_TEXT/UTF8
  80. Codec ID/Info                            : UTF-8 Plain Text
  81. Duration                                 : 1 h 59 min
  82. Bit rate                                 : 40 b/s
  83. Count of elements                        : 1097
  84. Stream size                              : 35.8 KiB (0%)
  85. Language                                 : English
  86. Default                                  : No
  87. Forced                                   : No
  88. Text #4
  89. ID                                       : 6
  90. Format                                   : UTF-8
  91. Codec ID                                 : S_TEXT/UTF8
  92. Codec ID/Info                            : UTF-8 Plain Text
  93. Duration                                 : 1 h 59 min
  94. Bit rate                                 : 76 b/s
  95. Count of elements                        : 1156
  96. Stream size                              : 66.8 KiB (0%)
  97. Language                                 : Arabic
  98. Default                                  : No
  99. Forced                                   : No
  100. Text #5
  101. ID                                       : 7
  102. Format                                   : UTF-8
  103. Codec ID                                 : S_TEXT/UTF8
  104. Codec ID/Info                            : UTF-8 Plain Text
  105. Duration                                 : 1 h 59 min
  106. Bit rate                                 : 38 b/s
  107. Count of elements                        : 1089
  108. Stream size                              : 33.6 KiB (0%)
  109. Language                                 : Danish
  110. Default                                  : No
  111. Forced                                   : No
  112. Text #6
  113. ID                                       : 8
  114. Format                                   : UTF-8
  115. Codec ID                                 : S_TEXT/UTF8
  116. Codec ID/Info                            : UTF-8 Plain Text
  117. Duration                                 : 1 h 59 min
  118. Bit rate                                 : 71 b/s
  119. Count of elements                        : 1182
  120. Stream size                              : 62.5 KiB (0%)
  121. Language                                 : Greek
  122. Default                                  : No
  123. Forced                                   : No
  124. Text #7
  125. ID                                       : 9
  126. Format                                   : UTF-8
  127. Codec ID                                 : S_TEXT/UTF8
  128. Codec ID/Info                            : UTF-8 Plain Text
  129. Duration                                 : 1 h 59 min
  130. Bit rate                                 : 39 b/s
  131. Count of elements                        : 1133
  132. Stream size                              : 35.1 KiB (0%)
  133. Language                                 : Spanish
  134. Default                                  : No
  135. Forced                                   : No
  136. Text #8
  137. ID                                       : 10
  138. Format                                   : UTF-8
  139. Codec ID                                 : S_TEXT/UTF8
  140. Codec ID/Info                            : UTF-8 Plain Text
  141. Duration                                 : 1 h 59 min
  142. Bit rate                                 : 39 b/s
  143. Count of elements                        : 1122
  144. Stream size                              : 35.0 KiB (0%)
  145. Title                                    : European
  146. Language                                 : Spanish
  147. Default                                  : No
  148. Forced                                   : No
  149. Text #9
  150. ID                                       : 11
  151. Format                                   : UTF-8
  152. Codec ID                                 : S_TEXT/UTF8
  153. Codec ID/Info                            : UTF-8 Plain Text
  154. Duration                                 : 1 h 59 min
  155. Bit rate                                 : 34 b/s
  156. Count of elements                        : 1068
  157. Stream size                              : 30.8 KiB (0%)
  158. Language                                 : Finnish
  159. Default                                  : No
  160. Forced                                   : No
  161. Text #10
  162. ID                                       : 12
  163. Format                                   : UTF-8
  164. Codec ID                                 : S_TEXT/UTF8
  165. Codec ID/Info                            : UTF-8 Plain Text
  166. Duration                                 : 1 h 59 min
  167. Bit rate                                 : 67 b/s
  168. Count of elements                        : 1126
  169. Stream size                              : 59.0 KiB (0%)
  170. Language                                 : Hebrew
  171. Default                                  : No
  172. Forced                                   : No
  173. Text #11
  174. ID                                       : 13
  175. Format                                   : UTF-8
  176. Codec ID                                 : S_TEXT/UTF8
  177. Codec ID/Info                            : UTF-8 Plain Text
  178. Duration                                 : 1 h 59 min
  179. Bit rate                                 : 97 b/s
  180. Count of elements                        : 1116
  181. Stream size                              : 85.3 KiB (0%)
  182. Language                                 : Hindi
  183. Default                                  : No
  184. Forced                                   : No
  185. Text #12
  186. ID                                       : 14
  187. Format                                   : UTF-8
  188. Codec ID                                 : S_TEXT/UTF8
  189. Codec ID/Info                            : UTF-8 Plain Text
  190. Duration                                 : 2 h 0 min
  191. Bit rate                                 : 39 b/s
  192. Count of elements                        : 1178
  193. Stream size                              : 34.8 KiB (0%)
  194. Language                                 : Indonesian
  195. Default                                  : No
  196. Forced                                   : No
  197. Text #13
  198. ID                                       : 15
  199. Format                                   : UTF-8
  200. Codec ID                                 : S_TEXT/UTF8
  201. Codec ID/Info                            : UTF-8 Plain Text
  202. Duration                                 : 1 h 59 min
  203. Bit rate                                 : 42 b/s
  204. Count of elements                        : 1152
  205. Stream size                              : 37.2 KiB (0%)
  206. Language                                 : Japanese
  207. Default                                  : No
  208. Forced                                   : No
  209. Text #14
  210. ID                                       : 16
  211. Format                                   : UTF-8
  212. Codec ID                                 : S_TEXT/UTF8
  213. Codec ID/Info                            : UTF-8 Plain Text
  214. Duration                                 : 1 h 59 min
  215. Bit rate                                 : 33 b/s
  216. Count of elements                        : 919
  217. Stream size                              : 29.4 KiB (0%)
  218. Language                                 : Korean
  219. Default                                  : No
  220. Forced                                   : No
  221. Text #15
  222. ID                                       : 17
  223. Format                                   : UTF-8
  224. Codec ID                                 : S_TEXT/UTF8
  225. Codec ID/Info                            : UTF-8 Plain Text
  226. Duration                                 : 1 h 59 min
  227. Bit rate                                 : 71 b/s
  228. Count of elements                        : 1808
  229. Stream size                              : 62.8 KiB (0%)
  230. Title                                    : SDH
  231. Language                                 : Korean
  232. Default                                  : No
  233. Forced                                   : No
  234. Text #16
  235. ID                                       : 18
  236. Format                                   : UTF-8
  237. Codec ID                                 : S_TEXT/UTF8
  238. Codec ID/Info                            : UTF-8 Plain Text
  239. Duration                                 : 1 h 59 min
  240. Bit rate                                 : 37 b/s
  241. Count of elements                        : 1060
  242. Stream size                              : 32.7 KiB (0%)
  243. Language                                 : Norwegian Bokmal
  244. Default                                  : No
  245. Forced                                   : No
  246. Text #17
  247. ID                                       : 19
  248. Format                                   : UTF-8
  249. Codec ID                                 : S_TEXT/UTF8
  250. Codec ID/Info                            : UTF-8 Plain Text
  251. Duration                                 : 1 h 59 min
  252. Bit rate                                 : 37 b/s
  253. Count of elements                        : 978
  254. Stream size                              : 33.1 KiB (0%)
  255. Language                                 : Dutch
  256. Default                                  : No
  257. Forced                                   : No
  258. Text #18
  259. ID                                       : 20
  260. Format                                   : UTF-8
  261. Codec ID                                 : S_TEXT/UTF8
  262. Codec ID/Info                            : UTF-8 Plain Text
  263. Duration                                 : 1 h 59 min
  264. Bit rate                                 : 36 b/s
  265. Count of elements                        : 1104
  266. Stream size                              : 32.2 KiB (0%)
  267. Language                                 : Polish
  268. Default                                  : No
  269. Forced                                   : No
  270. Text #19
  271. ID                                       : 21
  272. Format                                   : UTF-8
  273. Codec ID                                 : S_TEXT/UTF8
  274. Codec ID/Info                            : UTF-8 Plain Text
  275. Duration                                 : 1 h 59 min
  276. Bit rate                                 : 42 b/s
  277. Count of elements                        : 1122
  278. Stream size                              : 37.5 KiB (0%)
  279. Language                                 : Portuguese
  280. Default                                  : No
  281. Forced                                   : No
  282. Text #20
  283. ID                                       : 22
  284. Format                                   : UTF-8
  285. Codec ID                                 : S_TEXT/UTF8
  286. Codec ID/Info                            : UTF-8 Plain Text
  287. Duration                                 : 1 h 59 min
  288. Bit rate                                 : 39 b/s
  289. Count of elements                        : 1119
  290. Stream size                              : 34.8 KiB (0%)
  291. Title                                    : Brazilian
  292. Language                                 : Portuguese
  293. Default                                  : No
  294. Forced                                   : No
  295. Text #21
  296. ID                                       : 23
  297. Format                                   : UTF-8
  298. Codec ID                                 : S_TEXT/UTF8
  299. Codec ID/Info                            : UTF-8 Plain Text
  300. Duration                                 : 1 h 59 min
  301. Bit rate                                 : 39 b/s
  302. Count of elements                        : 1125
  303. Stream size                              : 35.1 KiB (0%)
  304. Language                                 : Romanian
  305. Default                                  : No
  306. Forced                                   : No
  307. Text #22
  308. ID                                       : 24
  309. Format                                   : UTF-8
  310. Codec ID                                 : S_TEXT/UTF8
  311. Codec ID/Info                            : UTF-8 Plain Text
  312. Duration                                 : 1 h 59 min
  313. Bit rate                                 : 63 b/s
  314. Count of elements                        : 1117
  315. Stream size                              : 55.7 KiB (0%)
  316. Language                                 : Russian
  317. Default                                  : No
  318. Forced                                   : No
  319. Text #23
  320. ID                                       : 25
  321. Format                                   : UTF-8
  322. Codec ID                                 : S_TEXT/UTF8
  323. Codec ID/Info                            : UTF-8 Plain Text
  324. Duration                                 : 1 h 59 min
  325. Bit rate                                 : 37 b/s
  326. Count of elements                        : 1074
  327. Stream size                              : 32.6 KiB (0%)
  328. Language                                 : Swedish
  329. Default                                  : No
  330. Forced                                   : No
  331. Text #24
  332. ID                                       : 26
  333. Format                                   : UTF-8
  334. Codec ID                                 : S_TEXT/UTF8
  335. Codec ID/Info                            : UTF-8 Plain Text
  336. Duration                                 : 1 h 59 min
  337. Bit rate                                 : 102 b/s
  338. Count of elements                        : 1137
  339. Stream size                              : 90.3 KiB (0%)
  340. Language                                 : Thai
  341. Default                                  : No
  342. Forced                                   : No
  343. Text #25
  344. ID                                       : 27
  345. Format                                   : UTF-8
  346. Codec ID                                 : S_TEXT/UTF8
  347. Codec ID/Info                            : UTF-8 Plain Text
  348. Duration                                 : 1 h 59 min
  349. Bit rate                                 : 41 b/s
  350. Count of elements                        : 1134
  351. Stream size                              : 36.0 KiB (0%)
  352. Language                                 : Turkish
  353. Default                                  : No
  354. Forced                                   : No
  355. Text #26
  356. ID                                       : 28
  357. Format                                   : UTF-8
  358. Codec ID                                 : S_TEXT/UTF8
  359. Codec ID/Info                            : UTF-8 Plain Text
  360. Duration                                 : 1 h 59 min
  361. Bit rate                                 : 37 b/s
  362. Count of elements                        : 1144
  363. Stream size                              : 32.9 KiB (0%)
  364. Title                                    : Simplified
  365. Language                                 : Chinese
  366. Default                                  : No
  367. Forced                                   : No
  368. Text #27
  369. ID                                       : 29
  370. Format                                   : UTF-8
  371. Codec ID                                 : S_TEXT/UTF8
  372. Codec ID/Info                            : UTF-8 Plain Text
  373. Duration                                 : 1 h 59 min
  374. Bit rate                                 : 32 b/s
  375. Count of elements                        : 1147
  376. Stream size                              : 28.5 KiB (0%)
  377. Title                                    : Traditional
  378. Language                                 : Chinese
  379. Default                                  : No
  380. Forced                                   : No
复制代码







回复

使用道具 举报

发表于 7 天前 | 显示全部楼层
楼主发贴辛苦了,谢谢楼主分享!我觉得蓝光电影网是注册对了!
回复 支持 反对

使用道具 举报

 成长值: 4600

发表于 7 天前 | 显示全部楼层
太好啦&萬分感謝版主的無私發佈分享%
回复 支持 反对

使用道具 举报

发表于 7 天前 | 显示全部楼层
楼主发贴辛苦了,谢谢楼主分享!我觉得蓝光电影网是注册对了!
回复 支持 反对

使用道具 举报

发表于 7 天前 | 显示全部楼层

楼主,大恩不言谢了!蓝光电影网是最棒的!
回复 支持 反对

使用道具 举报

发表于 7 天前 | 显示全部楼层
楼主发贴辛苦了,谢谢楼主分享!我觉得蓝光电影网是注册对了!
回复 支持 反对

使用道具 举报

发表于 6 天前 | 显示全部楼层
    进来看看,哈哈哈
回复 支持 反对

使用道具 举报

发表于 6 天前 | 显示全部楼层
楼主发贴辛苦了,谢谢楼主分享!
回复 支持 反对

使用道具 举报

发表于 6 天前 | 显示全部楼层
下载下来看下,谢谢楼主
回复 支持 反对

使用道具 举报

发表于 6 天前 | 显示全部楼层

我看不错噢 谢谢楼主!蓝光电影网越来越好!
回复 支持 反对

使用道具 举报

懒得打字嘛,点击右侧快捷回复 【右侧内容,后台自定义】
您需要登录后才可以回帖 登录 | 立即加入

本版积分规则

现在加入蓝光电影网,注册一个账号
上个主题 下个主题 快速回复 收藏帖子 返回列表 客服中心 搜索

手机版|小黑屋| 蓝光电影网 |网站地图 

Copyright © 2015-2019 Comsenz Inc.  Template by 蓝光电影论坛 All Rights Reserved.

Powered by 蓝光电影网 X3.4

特别声明:本站所有资源均由网上收集而来,版权归原影音公司所有,如果侵犯了你的权益,请通知我们,我们会及时删除侵权内容.

快速回复 返回顶部 返回列表