找回密码

蓝光电影网

查看: 955|回复: 17

[REMUX.HEVC] 登陆日诺曼底1944 D-Day.Normandy.1944.2014.DOCU.2160p.BluRay.REMUX.HEVC.DTS-HD.MA.5.1-FGT 18.47GB

[复制链接]

 成长值: 15345

发表于 2020-7-22 18:16:06 | 显示全部楼层 |阅读模式
登陆日诺曼底1944 D-Day.Normandy.1944.2014.DOCU.2160p.BluRay.REMUX.HEVC.DTS-HD.MA.5.1-FGT 18.47GB-1.jpeg

◎译  名 登陆日,诺曼底1944
◎片  名 D-Day, Normandie 1944
◎年  代 2014
◎产  地 法国
◎类  别 纪录片
◎语  言 法语
◎上映日期 2014-04-02(法国)
◎IMDb评分  7.6/10 from 105 users
◎IMDb链接  https://www.imdb.com/title/tt3635920
◎豆瓣评分 0/10 from 0 users
◎豆瓣链接 https://movie.douban.com/subject/25907990/
◎片  长 40分钟
◎导  演 Pascal Vuong
◎标  签 2014 | 紀錄片 | 法国 | UHD | PascalVuong | IMAX
◎简  介

  
  D-Day, Normandie 1944 a été spécialement réalisé pour les commémorations rendant hommage à l'opération "Overlord" autrement connue sous le nom de "D-Day" ou "Jour-J". Le fim est diffusé mondialement à l'occasion du 70e anniversaire du Débarquement Allié qui eut lieu sur les plages de Normandie le 6 juin 1944.
  1. Video
  2. ID                                       : 1
  3. ID in the original source medium         : 4113 (0x1011)
  4. Format                                   : HEVC
  5. Format/Info                              : High Efficiency Video Coding
  6. Format profile                           : Main High@L4.1@High
  7. Codec ID                                 : V_MPEGH/ISO/HEVC
  8. Duration                                 : 42 min 56 s
  9. Bit rate                                 : 53.9 Mb/s
  10. Width                                    : 3 840 pixels
  11. Height                                   : 2 160 pixels
  12. Display aspect ratio                     : 16:9
  13. Frame rate mode                          : Constant
  14. Frame rate                               : 24.000 FPS
  15. Color space                              : YUV
  16. Chroma subsampling                       : 4:2:0 (Type 2)
  17. Bit depth                                : 10 bits
  18. Bits/(Pixel*Frame)                       : 0.271
  19. Stream size                              : 16.2 GiB (87%)
  20. Title                                    : D-Day.Normandy.1944.2014.DOCU.2160p.BluRay.REMUX.HEVC.DTS-HD.MA.5.1-FGT
  21. Language                                 : English
  22. Default                                  : No
  23. Forced                                   : No
  24. Color range                              : Limited
  25. Color primaries                          : BT.2020
  26. Transfer characteristics                 : PQ
  27. Matrix coefficients                      : BT.2020 non-constant
  28. Original source medium                   : Blu-ray
  29. Audio #1
  30. ID                                       : 2
  31. ID in the original source medium         : 4352 (0x1100)
  32. Format                                   : DTS XLL
  33. Format/Info                              : Digital Theater Systems
  34. Commercial name                          : DTS-HD Master Audio
  35. Codec ID                                 : A_DTS
  36. Duration                                 : 42 min 56 s
  37. Bit rate mode                            : Variable
  38. Bit rate                                 : 3 860 kb/s
  39. Channel(s)                               : 6 channels
  40. Channel layout                           : C L R Ls Rs LFE
  41. Sampling rate                            : 48.0 kHz
  42. Frame rate                               : 93.750 FPS (512 SPF)
  43. Bit depth                                : 24 bits
  44. Compression mode                         : Lossless
  45. Stream size                              : 1.16 GiB (6%)
  46. Title                                    : D-Day.Normandy.1944.2014.DOCU.2160p.BluRay.REMUX.HEVC.DTS-HD.MA.5.1-FGT
  47. Language                                 : English
  48. Default                                  : Yes
  49. Forced                                   : No
  50. Original source medium                   : Blu-ray
  51. Audio #2
  52. ID                                       : 3
  53. ID in the original source medium         : 4353 (0x1101)
  54. Format                                   : DTS XLL
  55. Format/Info                              : Digital Theater Systems
  56. Commercial name                          : DTS-HD Master Audio
  57. Codec ID                                 : A_DTS
  58. Duration                                 : 42 min 56 s
  59. Bit rate mode                            : Variable
  60. Bit rate                                 : 3 854 kb/s
  61. Channel(s)                               : 6 channels
  62. Channel layout                           : C L R Ls Rs LFE
  63. Sampling rate                            : 48.0 kHz
  64. Frame rate                               : 93.750 FPS (512 SPF)
  65. Bit depth                                : 24 bits
  66. Compression mode                         : Lossless
  67. Stream size                              : 1.16 GiB (6%)
  68. Title                                    : D-Day.Normandy.1944.2014.DOCU.2160p.BluRay.REMUX.HEVC.DTS-HD.MA.5.1-FGT
  69. Language                                 : French
  70. Default                                  : No
  71. Forced                                   : No
  72. Original source medium                   : Blu-ray
  73. Text #1
  74. ID                                       : 4
  75. Format                                   : UTF-8
  76. Codec ID                                 : S_TEXT/UTF8
  77. Codec ID/Info                            : UTF-8 Plain Text
  78. Duration                                 : 42 min 11 s
  79. Bit rate                                 : 74 b/s
  80. Count of elements                        : 709
  81. Stream size                              : 22.9 KiB (0%)
  82. Title                                    : English-SRT
  83. Language                                 : English
  84. Default                                  : Yes
  85. Forced                                   : No
  86. Text #2
  87. ID                                       : 5
  88. ID in the original source medium         : 4768 (0x12A0)
  89. Format                                   : PGS
  90. Muxing mode                              : zlib
  91. Codec ID                                 : S_HDMV/PGS
  92. Codec ID/Info                            : Picture based subtitle format used on BDs/HD-DVDs
  93. Duration                                 : 42 min 19 s
  94. Bit rate                                 : 34.1 kb/s
  95. Count of elements                        : 1524
  96. Stream size                              : 10.3 MiB (0%)
  97. Title                                    : English-PGS
  98. Language                                 : English
  99. Default                                  : No
  100. Forced                                   : No
  101. Original source medium                   : Blu-ray
  102. Menu
  103. 00:00:00.000                             : en:Chapter 01
  104. 00:04:41.958                             : en:Chapter 02
  105. 00:06:45.625                             : en:Chapter 03
  106. 00:09:00.083                             : en:Chapter 04
  107. 00:11:09.000                             : en:Chapter 05
  108. 00:16:05.375                             : en:Chapter 06
  109. 00:20:13.000                             : en:Chapter 07
  110. 00:23:23.416                             : en:Chapter 08
  111. 00:26:18.583                             : en:Chapter 09
  112. 00:28:59.500                             : en:Chapter 10
  113. 00:34:46.041                             : en:Chapter 11
  114. 00:40:27.000                             : en:Chapter 12
复制代码







回复

使用道具 举报

发表于 2020-7-22 21:38:23 | 显示全部楼层

感谢楼主的无私分享!要想蓝光电影网好 就靠你我他
回复 支持 反对

使用道具 举报

 成长值: 4690

发表于 2020-7-24 14:30:12 | 显示全部楼层
Thanks♪(・ω・)ノ
回复 支持 反对

使用道具 举报

发表于 2020-7-24 16:32:18 | 显示全部楼层
谢谢分享谢谢分享
回复 支持 反对

使用道具 举报

发表于 2020-7-24 17:13:34 | 显示全部楼层
楼主发贴辛苦了,谢谢楼主分享!我觉得蓝光电影网是注册对了!
回复 支持 反对

使用道具 举报

发表于 2020-7-24 20:32:49 | 显示全部楼层
楼主发贴辛苦了,谢谢楼主分享!我觉得蓝光电影网是注册对了!
回复 支持 反对

使用道具 举报

发表于 2020-7-25 13:45:23 | 显示全部楼层
赚2分真不容易
回复 支持 反对

使用道具 举报

发表于 2020-7-25 16:43:52 | 显示全部楼层

楼主太厉害了!楼主,电影应该很好看我觉得蓝光电影网真是个好地方!
回复 支持 反对

使用道具 举报

发表于 2020-7-26 04:02:39 | 显示全部楼层

这东西我收了!谢谢楼主!蓝光电影网真好!
回复 支持 反对

使用道具 举报

发表于 2020-7-26 15:00:48 | 显示全部楼层

楼主太厉害了!楼主,电影应该很好看我觉得蓝光电影网真是个好地方!
回复 支持 反对

使用道具 举报

懒得打字嘛,点击右侧快捷回复 【右侧内容,后台自定义】
您需要登录后才可以回帖 登录 | 立即加入

本版积分规则

现在加入蓝光电影网,注册一个账号
上个主题 下个主题 快速回复 收藏帖子 返回列表 客服中心 搜索

手机版|小黑屋| 蓝光电影网 |网站地图 

Copyright © 2015-2019 Comsenz Inc.  Template by 蓝光电影论坛 All Rights Reserved.

Powered by 蓝光电影网 X3.4

特别声明:本站所有资源均由网上收集而来,版权归原影音公司所有,如果侵犯了你的权益,请通知我们,我们会及时删除侵权内容.

快速回复 返回顶部 返回列表