找回密码

蓝光电影网

查看: 855|回复: 13

[REMUX.HEVC] 斯巴达克斯/万夫莫敌 Spartacus.1960.2160p.BluRay.REMUX.HEVC.DTS-X.7.1-FGT 72.78GB

[复制链接]

 成长值: 15345

发表于 2020-7-22 18:15:58 | 显示全部楼层 |阅读模式
斯巴达克斯/万夫莫敌 Spartacus.1960.2160p.BluRay.REMUX.HEVC.DTS-X.7.1-FGT 72.78GB-1.jpeg

◎译  名 斯巴达克斯 / 万夫莫敌(台) / 斯巴达克思 / 风云群英会(港)
◎片  名 Spartacus
◎年  代 1960
◎产  地 美国
◎类  别 剧情 / 动作 / 传记 / 历史 / 冒险
◎语  言 英语
◎上映日期 1960-10-07
◎IMDb评分  7.9/10 from 121139 users
◎IMDb链接  https://www.imdb.com/title/tt0054331
◎豆瓣评分 8.0/10 from 17368 users
◎豆瓣链接 https://movie.douban.com/subject/1298366/
◎片  长 184分钟(首映版)
◎导  演 Stanley Kubrick
◎编  剧 Dalton Trumbo / Calder Willingham
◎主  演 Kirk Douglas
       Laurence Olivier
       Jean Simmons
       Charles Laughton
       Peter Ustinov
       John Gavin
       Nina Foch
       Tony Curtis

◎标  签 美国 | 史诗 | 战争 | 斯坦利·库布里克 | 历史 | 库布里克 | StanleyKubrick | 1960
◎简  介

  
  公元前73年,来自古罗马利比亚省的奴隶斯巴达克斯(柯克?道格拉斯 Kirk Douglas 饰)在加普亚格斗学校中爱上了女奴瓦瑞妮娅(琼?西蒙斯 Jean Simmons 饰)。同年,格斗学校的奴隶在斯巴达克斯带领下发动起义,获得自由,随后斯巴达克斯与瓦瑞妮娅团聚,结为夫妇。起义震惊了罗马的统治集团,激化了元老院中贵族派和平民派的矛盾。贵族将领克拉苏(劳伦斯?奥利维尔 Laurence Olivier 饰)乘机击败平民派首领格拉古(查尔斯?劳顿 Charles Laughton 饰),篡夺了首席执政官的权力,实行独裁。格拉古为了打击克拉苏,打算私下放走奴隶大军;克拉苏却重金收买了海盗,并召回在国外作战的两支大军。斯巴达克斯起义军三面受敌,寡不抵众,数万奴隶战死,他与妻子和六千幸存战友均被克拉苏所俘。在最后的关头,由于格拉古的帮助,情况又发生了变化。
◎获奖情况  
  第33届奥斯卡金像奖(1961)
  最佳男配角 彼得·乌斯蒂诺夫
  彩色片最佳摄影 拉塞尔·麦蒂
  最佳剪辑(提名) Robert Lawrence
  彩色片最佳艺术指导和布景 Eric Orbom / 亚历山大·高利思 / Julia Heron / 罗素·A·盖斯曼
  彩色片最佳服装设计 瓦勒斯 / Bill Thomas
  剧情/喜剧片最佳配乐(提名) 阿历克斯·诺斯
  第18届金球奖(1961)
  电影类 最佳剧情片
  电影类 最佳导演(提名) 斯坦利·库布里克
  电影类 剧情片最佳男主角(提名) 劳伦斯·奥利弗
  电影类 最佳男配角(提名) 彼得·乌斯蒂诺夫 / 伍迪·斯特罗德
  电影类 最佳原创配乐(提名) 阿历克斯·诺斯
  1. Video #1
  2. ID                                       : 1
  3. ID in the original source medium         : 4113 (0x1011)
  4. Format                                   : HEVC
  5. Format/Info                              : High Efficiency Video Coding
  6. Format profile                           : Main High@L4.1@High
  7. HDR format                               : SMPTE ST 2086, HDR10 compatible
  8. Codec ID                                 : V_MPEGH/ISO/HEVC
  9. Duration                                 : 3 h 16 min
  10. Bit rate                                 : 39.7 Mb/s
  11. Width                                    : 3 840 pixels
  12. Height                                   : 2 160 pixels
  13. Display aspect ratio                     : 16:9
  14. Frame rate mode                          : Constant
  15. Frame rate                               : 23.976 (24000/1001/189150) FPS
  16. Color space                              : YUV
  17. Chroma subsampling                       : 4:2:0 (Type 2)
  18. Bit depth                                : 10 bits
  19. Bits/(Pixel*Frame)                       : 0.200
  20. Stream size                              : 54.6 GiB (75%)
  21. Title                                    : Spartacus.1960.2160p.BluRay.REMUX.HEVC.DTS-X.7.1-FGT
  22. Language                                 : English
  23. Default                                  : Yes
  24. Forced                                   : No
  25. Color range                              : Limited
  26. Color primaries                          : BT.2020
  27. Transfer characteristics                 : PQ
  28. Matrix coefficients                      : BT.2020 non-constant
  29. Mastering display color primaries        : Display P3
  30. Mastering display luminance              : min: 0.0001 cd/m2, max: 1000 cd/m2
  31. Maximum Content Light Level              : 1000 cd/m2
  32. Maximum Frame-Average Light Level        : 92 cd/m2
  33. Original source medium                   : Blu-ray
  34. Video #2
  35. ID                                       : 2
  36. ID in the original source medium         : 4117 (0x1015)
  37. Format                                   : HEVC
  38. Format/Info                              : High Efficiency Video Coding
  39. Format profile                           : Main High@L4.1@High
  40. HDR format                               : SMPTE ST 2086, HDR10 compatible
  41. Codec ID                                 : V_MPEGH/ISO/HEVC
  42. Duration                                 : 3 h 16 min
  43. Bit rate                                 : 4 486 kb/s
  44. Width                                    : 1 920 pixels
  45. Height                                   : 1 080 pixels
  46. Display aspect ratio                     : 16:9
  47. Frame rate mode                          : Constant
  48. Frame rate                               : 23.976 (24000/1001/189150) FPS
  49. Color space                              : YUV
  50. Chroma subsampling                       : 4:2:0 (Type 2)
  51. Bit depth                                : 10 bits
  52. Bits/(Pixel*Frame)                       : 0.090
  53. Stream size                              : 6.16 GiB (8%)
  54. Title                                    : Spartacus.1960.2160p.BluRay.REMUX.HEVC.DTS-X.7.1-FGT
  55. Language                                 : English
  56. Default                                  : No
  57. Forced                                   : No
  58. Color range                              : Limited
  59. Color primaries                          : BT.2020
  60. Transfer characteristics                 : PQ
  61. Matrix coefficients                      : BT.2020 non-constant
  62. Mastering display color primaries        : Display P3
  63. Mastering display luminance              : min: 0.0001 cd/m2, max: 1000 cd/m2
  64. Original source medium                   : Blu-ray
  65. Audio #1
  66. ID                                       : 3
  67. ID in the original source medium         : 4352 (0x1100)
  68. Format                                   : DTS XLL X
  69. Format/Info                              : Digital Theater Systems
  70. Commercial name                          : DTS-HD Master Audio
  71. Codec ID                                 : A_DTS
  72. Duration                                 : 3 h 16 min
  73. Bit rate mode                            : Variable
  74. Bit rate                                 : 5 965 kb/s
  75. Channel(s)                               : 8 channels
  76. Channel(s)_Original                      : Object Based
  77. Channel layout                           : Object Based
  78. Sampling rate                            : 48.0 kHz
  79. Frame rate                               : 93.750 FPS (512 SPF)
  80. Bit depth                                : 24 bits
  81. Stream size                              : 8.19 GiB (11%)
  82. Title                                    : Spartacus.1960.2160p.BluRay.REMUX.HEVC.DTS-X.7.1-FGT
  83. Language                                 : English
  84. Default                                  : Yes
  85. Forced                                   : No
  86. Original source medium                   : Blu-ray
  87. Audio #2
  88. ID                                       : 4
  89. ID in the original source medium         : 4353 (0x1101)
  90. Format                                   : DTS
  91. Format/Info                              : Digital Theater Systems
  92. Codec ID                                 : A_DTS
  93. Duration                                 : 3 h 16 min
  94. Bit rate mode                            : Constant
  95. Bit rate                                 : 768 kb/s
  96. Channel(s)                               : 6 channels
  97. Channel layout                           : C L R Ls Rs LFE
  98. Sampling rate                            : 48.0 kHz
  99. Frame rate                               : 93.750 FPS (512 SPF)
  100. Bit depth                                : 24 bits
  101. Compression mode                         : Lossy
  102. Stream size                              : 1.05 GiB (1%)
  103. Title                                    : Spartacus.1960.2160p.BluRay.REMUX.HEVC.DTS-X.7.1-FGT
  104. Language                                 : Spanish
  105. Default                                  : No
  106. Forced                                   : No
  107. Original source medium                   : Blu-ray
  108. Audio #3
  109. ID                                       : 5
  110. ID in the original source medium         : 4354 (0x1102)
  111. Format                                   : DTS
  112. Format/Info                              : Digital Theater Systems
  113. Codec ID                                 : A_DTS
  114. Duration                                 : 3 h 16 min
  115. Bit rate mode                            : Constant
  116. Bit rate                                 : 768 kb/s
  117. Channel(s)                               : 6 channels
  118. Channel layout                           : C L R Ls Rs LFE
  119. Sampling rate                            : 48.0 kHz
  120. Frame rate                               : 93.750 FPS (512 SPF)
  121. Bit depth                                : 24 bits
  122. Compression mode                         : Lossy
  123. Stream size                              : 1.05 GiB (1%)
  124. Title                                    : Spartacus.1960.2160p.BluRay.REMUX.HEVC.DTS-X.7.1-FGT
  125. Language                                 : Japanese
  126. Default                                  : No
  127. Forced                                   : No
  128. Original source medium                   : Blu-ray
  129. Audio #4
  130. ID                                       : 6
  131. ID in the original source medium         : 4355 (0x1103)
  132. Format                                   : DTS
  133. Format/Info                              : Digital Theater Systems
  134. Codec ID                                 : A_DTS
  135. Duration                                 : 3 h 16 min
  136. Bit rate mode                            : Constant
  137. Bit rate                                 : 447 kb/s
  138. Channel(s)                               : 2 channels
  139. Channel layout                           : L R
  140. Sampling rate                            : 48.0 kHz
  141. Frame rate                               : 93.750 FPS (512 SPF)
  142. Bit depth                                : 24 bits
  143. Compression mode                         : Lossy
  144. Stream size                              : 629 MiB (1%)
  145. Title                                    : Spartacus.1960.2160p.BluRay.REMUX.HEVC.DTS-X.7.1-FGT
  146. Language                                 : Japanese
  147. Default                                  : No
  148. Forced                                   : No
  149. Original source medium                   : Blu-ray
  150. Audio #5
  151. ID                                       : 7
  152. ID in the original source medium         : 4356 (0x1104)
  153. Format                                   : DTS
  154. Format/Info                              : Digital Theater Systems
  155. Codec ID                                 : A_DTS
  156. Duration                                 : 3 h 16 min
  157. Bit rate mode                            : Constant
  158. Bit rate                                 : 768 kb/s
  159. Channel(s)                               : 6 channels
  160. Channel layout                           : C L R Ls Rs LFE
  161. Sampling rate                            : 48.0 kHz
  162. Frame rate                               : 93.750 FPS (512 SPF)
  163. Bit depth                                : 24 bits
  164. Compression mode                         : Lossy
  165. Stream size                              : 1.05 GiB (1%)
  166. Title                                    : Spartacus.1960.2160p.BluRay.REMUX.HEVC.DTS-X.7.1-FGT
  167. Language                                 : Portuguese
  168. Default                                  : No
  169. Forced                                   : No
  170. Original source medium                   : Blu-ray
  171. Text #1
  172. ID                                       : 8
  173. Format                                   : UTF-8
  174. Codec ID                                 : S_TEXT/UTF8
  175. Codec ID/Info                            : UTF-8 Plain Text
  176. Duration                                 : 3 h 5 min
  177. Bit rate                                 : 46 b/s
  178. Count of elements                        : 1780
  179. Stream size                              : 62.7 KiB (0%)
  180. Title                                    : English-SRT
  181. Language                                 : English
  182. Default                                  : Yes
  183. Forced                                   : No
  184. Text #2
  185. ID                                       : 9
  186. ID in the original source medium         : 4768 (0x12A0)
  187. Format                                   : PGS
  188. Muxing mode                              : zlib
  189. Codec ID                                 : S_HDMV/PGS
  190. Codec ID/Info                            : Picture based subtitle format used on BDs/HD-DVDs
  191. Duration                                 : 3 h 5 min
  192. Bit rate                                 : 31.1 kb/s
  193. Count of elements                        : 3900
  194. Stream size                              : 41.2 MiB (0%)
  195. Title                                    : English-PGS
  196. Language                                 : English
  197. Default                                  : No
  198. Forced                                   : No
  199. Original source medium                   : Blu-ray
  200. Text #3
  201. ID                                       : 10
  202. ID in the original source medium         : 4769 (0x12A1)
  203. Format                                   : PGS
  204. Muxing mode                              : zlib
  205. Codec ID                                 : S_HDMV/PGS
  206. Codec ID/Info                            : Picture based subtitle format used on BDs/HD-DVDs
  207. Duration                                 : 3 h 13 min
  208. Bit rate                                 : 29.0 kb/s
  209. Count of elements                        : 3586
  210. Stream size                              : 40.1 MiB (0%)
  211. Title                                    : French-PGS
  212. Language                                 : French
  213. Default                                  : No
  214. Forced                                   : No
  215. Original source medium                   : Blu-ray
  216. Text #4
  217. ID                                       : 11
  218. ID in the original source medium         : 4770 (0x12A2)
  219. Format                                   : PGS
  220. Muxing mode                              : zlib
  221. Codec ID                                 : S_HDMV/PGS
  222. Codec ID/Info                            : Picture based subtitle format used on BDs/HD-DVDs
  223. Duration                                 : 3 h 13 min
  224. Bit rate                                 : 27.5 kb/s
  225. Count of elements                        : 3592
  226. Stream size                              : 38.1 MiB (0%)
  227. Title                                    : Spanish-PGS
  228. Language                                 : Spanish
  229. Default                                  : No
  230. Forced                                   : No
  231. Original source medium                   : Blu-ray
  232. Text #5
  233. ID                                       : 12
  234. ID in the original source medium         : 4771 (0x12A3)
  235. Format                                   : PGS
  236. Muxing mode                              : zlib
  237. Codec ID                                 : S_HDMV/PGS
  238. Codec ID/Info                            : Picture based subtitle format used on BDs/HD-DVDs
  239. Duration                                 : 3 h 5 min
  240. Bit rate                                 : 20.5 kb/s
  241. Count of elements                        : 3356
  242. Stream size                              : 27.2 MiB (0%)
  243. Title                                    : Japanese-PGS
  244. Language                                 : Japanese
  245. Default                                  : No
  246. Forced                                   : No
  247. Original source medium                   : Blu-ray
  248. Text #6
  249. ID                                       : 13
  250. ID in the original source medium         : 4772 (0x12A4)
  251. Format                                   : PGS
  252. Muxing mode                              : zlib
  253. Codec ID                                 : S_HDMV/PGS
  254. Codec ID/Info                            : Picture based subtitle format used on BDs/HD-DVDs
  255. Duration                                 : 3 h 16 min
  256. Bit rate                                 : 27.7 kb/s
  257. Count of elements                        : 3596
  258. Stream size                              : 38.9 MiB (0%)
  259. Title                                    : Portuguese-PGS
  260. Language                                 : Portuguese
  261. Default                                  : No
  262. Forced                                   : No
  263. Original source medium                   : Blu-ray
  264. Text #7
  265. ID                                       : 14
  266. ID in the original source medium         : 4773 (0x12A5)
  267. Format                                   : PGS
  268. Muxing mode                              : zlib
  269. Codec ID                                 : S_HDMV/PGS
  270. Codec ID/Info                            : Picture based subtitle format used on BDs/HD-DVDs
  271. Duration                                 : 3 h 13 min
  272. Bit rate                                 : 32 b/s
  273. Count of elements                        : 12
  274. Stream size                              : 45.4 KiB (0%)
  275. Title                                    : Spanish-FORCED-PGS
  276. Language                                 : Spanish
  277. Default                                  : No
  278. Forced                                   : No
  279. Original source medium                   : Blu-ray
  280. Text #8
  281. ID                                       : 15
  282. ID in the original source medium         : 4774 (0x12A6)
  283. Format                                   : PGS
  284. Muxing mode                              : zlib
  285. Codec ID                                 : S_HDMV/PGS
  286. Codec ID/Info                            : Picture based subtitle format used on BDs/HD-DVDs
  287. Duration                                 : 1 h 4 min
  288. Bit rate                                 : 28 b/s
  289. Count of elements                        : 4
  290. Stream size                              : 13.7 KiB (0%)
  291. Title                                    : Japanese-FORCED-PGS
  292. Language                                 : Japanese
  293. Default                                  : No
  294. Forced                                   : No
  295. Original source medium                   : Blu-ray
  296. Text #9
  297. ID                                       : 16
  298. ID in the original source medium         : 4775 (0x12A7)
  299. Format                                   : PGS
  300. Muxing mode                              : zlib
  301. Codec ID                                 : S_HDMV/PGS
  302. Codec ID/Info                            : Picture based subtitle format used on BDs/HD-DVDs
  303. Duration                                 : 2 h 36 min
  304. Bit rate                                 : 1 960 b/s
  305. Count of elements                        : 294
  306. Stream size                              : 2.19 MiB (0%)
  307. Title                                    : Japanese-FORCED-PGS
  308. Language                                 : Japanese
  309. Default                                  : No
  310. Forced                                   : No
  311. Original source medium                   : Blu-ray
  312. Text #10
  313. ID                                       : 17
  314. ID in the original source medium         : 4776 (0x12A8)
  315. Format                                   : PGS
  316. Muxing mode                              : zlib
  317. Codec ID                                 : S_HDMV/PGS
  318. Codec ID/Info                            : Picture based subtitle format used on BDs/HD-DVDs
  319. Duration                                 : 3 h 16 min
  320. Bit rate                                 : 46 b/s
  321. Count of elements                        : 12
  322. Stream size                              : 67.4 KiB (0%)
  323. Title                                    : Portuguese-FORCED-PGS
  324. Language                                 : Portuguese
  325. Default                                  : No
  326. Forced                                   : No
  327. Original source medium                   : Blu-ray
  328. Menu
  329. 00:00:00.000                             : en:Chapter 01
  330. 00:04:03.910                             : en:Chapter 02
  331. 00:14:05.636                             : en:Chapter 03
  332. 00:19:05.602                             : en:Chapter 04
  333. 00:31:56.539                             : en:Chapter 05
  334. 00:43:13.507                             : en:Chapter 06
  335. 00:53:03.638                             : en:Chapter 07
  336. 01:01:47.161                             : en:Chapter 08
  337. 01:20:18.438                             : en:Chapter 09
  338. 01:41:47.059                             : en:Chapter 10
  339. 01:47:55.760                             : en:Chapter 11
  340. 01:50:18.153                             : en:Chapter 12
  341. 02:10:43.919                             : en:Chapter 13
  342. 02:30:02.785                             : en:Chapter 14
  343. 03:00:56.971                             : en:Chapter 15
  344. 03:10:09.272                             : en:Chapter 16
复制代码







回复

使用道具 举报

已抛锚 成长值: 590

发表于 2020-7-22 21:29:48 | 显示全部楼层

既然你诚信诚意的推荐了,那我就勉为其难的看看吧!蓝光电影网不走平凡路。
回复 支持 反对

使用道具 举报

发表于 2020-7-22 22:14:10 | 显示全部楼层

楼主太厉害了!楼主,电影应该很好看我觉得蓝光电影网真是个好地方!
回复 支持 反对

使用道具 举报

 成长值: 4015

发表于 2020-7-23 11:11:04 | 显示全部楼层
谢谢楼主无私分享。
回复 支持 反对

使用道具 举报

发表于 2020-7-24 00:10:43 | 显示全部楼层
[REMUX.HEVC] 斯巴达克斯/万夫莫敌 Spartacus.1960.2160p.BluRay.REMUX.HEVC.DTS-X.7.1-FGT 72.78GB [复制链接]
回复 支持 反对

使用道具 举报

发表于 2020-7-24 19:00:45 | 显示全部楼层
楼主发贴辛苦了,谢谢楼主分享!我觉得蓝光电影网是注册对了!
回复 支持 反对

使用道具 举报

发表于 2020-7-26 09:38:10 | 显示全部楼层
三个多小时的片子现如今真是没有了,都改成系列片了,还是过去的人实诚,谢谢楼主分享。
回复 支持 反对

使用道具 举报

发表于 2020-7-28 00:17:19 | 显示全部楼层
楼主发贴辛苦了,谢谢楼主分享!我觉得蓝光电影网是注册对了!
回复 支持 反对

使用道具 举报

发表于 2020-7-28 07:55:20 | 显示全部楼层
楼主发贴辛苦了,谢谢楼主分享!我觉得蓝光电影网是注册对了!
回复 支持 反对

使用道具 举报

发表于 2020-7-28 20:06:22 | 显示全部楼层
非常经典的东东啊!谢谢分享!
回复 支持 反对

使用道具 举报

懒得打字嘛,点击右侧快捷回复 【右侧内容,后台自定义】
您需要登录后才可以回帖 登录 | 立即加入

本版积分规则

现在加入蓝光电影网,注册一个账号
上个主题 下个主题 快速回复 收藏帖子 返回列表 客服中心 搜索

手机版|小黑屋| 蓝光电影网 |网站地图 

Copyright © 2015-2019 Comsenz Inc.  Template by 蓝光电影论坛 All Rights Reserved.

Powered by 蓝光电影网 X3.4

特别声明:本站所有资源均由网上收集而来,版权归原影音公司所有,如果侵犯了你的权益,请通知我们,我们会及时删除侵权内容.

快速回复 返回顶部 返回列表