找回密码

蓝光电影网

查看: 365|回复: 5

[REMUX.HEVC] 史酷比狗 Scoob.2020.2160p.BluRay.REMUX.HEVC.DTS-HD.MA.5.1-FGT 43.50GB

[复制链接]

 成长值: 15345

发表于 2020-7-22 18:15:51 | 显示全部楼层 |阅读模式
史酷比狗 Scoob.2020.2160p.BluRay.REMUX.HEVC.DTS-HD.MA.5.1-FGT 43.50GB-1.jpeg

◎译  名 史酷比狗 / S.C.O.O.B / 史酷比大电影
◎片  名 Scooby-Doo
◎年  代 2020
◎产  地 美国
◎类  别 喜剧 / 动画 / 冒险
◎语  言 英语
◎上映日期 2020-05-15(美国)
◎IMDb评分  5.7/10 from 11632 users
◎IMDb链接  https://www.imdb.com/title/tt3152592
◎豆瓣评分 5.3/10 from 475 users
◎豆瓣链接 https://movie.douban.com/subject/25908846/
◎片  长 94分钟(美国)
◎导  演 托尼·塞沃恩 Tony Cervone
◎编  剧 马特·利伯曼 Matt Lieberman / 亚当·希泰凯尔 Adam Sztykiel / Jack Donaldson / 德里克·艾略特 Derek Elliott / 伊尔·波戴尔 Eyal Podell / 乔纳森·E·斯图尔特 Jonathon E. Stewart / 威廉·汉纳 William Hanna / 约瑟夫·巴伯拉 Joseph Barbera
◎主  演 威尔·福特 Will Forte
       马克·沃尔伯格 Mark Wahlberg
       詹森·艾萨克 Jason Isaacs
       吉娜·罗德里格兹 Gina Rodriguez
       扎克·埃夫隆 Zac Efron
       阿曼达·塞弗里德 Amanda Seyfried
       科雷西·克莱门斯 Kiersey Clemons
       郑肯 Ken Jeong
       崔西·摩根 Tracy Morgan
       弗兰克·维尔克 Frank Welker
       伊恩·阿米蒂奇 Iain Armitage
       麦肯娜·格瑞丝 Mckenna Grace
       皮尔斯·加格农 Pierce Gagnon
       阿丽亚娜·格林布拉特 Ariana Greenblatt
       西蒙·考威尔 Simon Cowell
       克里斯蒂娜·亨德里克斯 Christina Hendricks
       亨利·温克勒 Henry Winkler
       哈里·佩里 Harry Perry
       约翰·迪·马吉欧 John Di Maggio
       凯文·赫夫南 Kevin Heffernan
       伊拉·格拉斯 Ira Glass
       玛雅·厄斯金 Maya Erskine
       比利·维斯特 Billy West
       Don Messick
       弗雷德·塔特西奥 Fred Tatasciore
       贾斯蒂娜·马查多 Justina Machado
       肯妮迪·皮尔 Kennedy Peil
       John McDaniel
       帕姆·科茨 Pam Coats
       托尼·塞沃恩 Tony Cervone
       亚当·希泰凯尔 Adam Sztykiel
       吉姆·麦司奇门 Jim Meskimen

◎标  签 动画 | 美国 | 喜剧 | 2020 | 史酷比 | 华纳 | 电影 | 经典
◎简  介

  
  《史酷比狗》是史酷比狗的第一部大银幕动画冒险长片,讲述了史酷比不为人知的起源故事,以及神秘公司史上最精彩的惊世秘案。
  《史酷比狗》演绎了史酷比与其一生挚友夏奇的初次相遇,以及他们如何与少年侦探弗雷德、维尔玛和达芙妮一起组建了世界著名的神秘公司。如今,神秘公司已经解决了数百起谜案、进行了无数次冒险,但史酷比和他的同伴们发现,他们正面临有史以来最惊险、最具挑战性的神秘案件:一个将“幽灵狗”塞伯勒斯释放回世上的阴谋。当他们拼命努力想要阻止这一全球性大灾难之时,他们也发现了史酷比的秘密身世,以及他超乎想象的神秘命运。
  1. Video
  2. ID                                       : 1
  3. ID in the original source medium         : 4113 (0x1011)
  4. Format                                   : HEVC
  5. Format/Info                              : High Efficiency Video Coding
  6. Format profile                           : Main High@L4.1@High
  7. HDR format                               : SMPTE ST 2094 App 4, Version 1, HDR10+ Profile B compatible
  8. Codec ID                                 : V_MPEGH/ISO/HEVC
  9. Duration                                 : 1 h 33 min
  10. Bit rate                                 : 63.2 Mb/s
  11. Width                                    : 3 840 pixels
  12. Height                                   : 2 160 pixels
  13. Display aspect ratio                     : 16:9
  14. Frame rate mode                          : Constant
  15. Frame rate                               : 23.976 (24000/1001/189150) FPS
  16. Color space                              : YUV
  17. Chroma subsampling                       : 4:2:0 (Type 2)
  18. Bit depth                                : 10 bits
  19. Bits/(Pixel*Frame)                       : 0.318
  20. Stream size                              : 41.4 GiB (95%)
  21. Title                                    : Scoob.2020.2160p.BluRay.REMUX.HEVC.DTS-HD.MA.5.1-FGT
  22. Writing library                          : ATEME Titan File 3.9.0 (4.9.0.0)        
  23. Language                                 : English
  24. Default                                  : No
  25. Forced                                   : No
  26. Color range                              : Limited
  27. Color primaries                          : BT.2020
  28. Transfer characteristics                 : PQ
  29. Matrix coefficients                      : BT.2020 non-constant
  30. Mastering display color primaries        : Display P3
  31. Mastering display luminance              : min: 0.0001 cd/m2, max: 1000 cd/m2
  32. Maximum Content Light Level              : 1016 cd/m2
  33. Maximum Frame-Average Light Level        : 115 cd/m2
  34. Original source medium                   : Blu-ray
  35. Audio #1
  36. ID                                       : 2
  37. ID in the original source medium         : 4352 (0x1100)
  38. Format                                   : DTS XLL
  39. Format/Info                              : Digital Theater Systems
  40. Commercial name                          : DTS-HD Master Audio
  41. Codec ID                                 : A_DTS
  42. Duration                                 : 1 h 33 min
  43. Bit rate mode                            : Variable
  44. Bit rate                                 : 2 314 kb/s
  45. Channel(s)                               : 6 channels
  46. Channel layout                           : C L R Ls Rs LFE
  47. Sampling rate                            : 48.0 kHz
  48. Frame rate                               : 93.750 FPS (512 SPF)
  49. Bit depth                                : 16 bits
  50. Compression mode                         : Lossless
  51. Stream size                              : 1.52 GiB (3%)
  52. Title                                    : Scoob.2020.2160p.BluRay.REMUX.HEVC.DTS-HD.MA.5.1-FGT
  53. Language                                 : English
  54. Default                                  : Yes
  55. Forced                                   : No
  56. Original source medium                   : Blu-ray
  57. Audio #2
  58. ID                                       : 3
  59. ID in the original source medium         : 4353 (0x1101)
  60. Format                                   : AC-3
  61. Format/Info                              : Audio Coding 3
  62. Commercial name                          : Dolby Digital
  63. Codec ID                                 : A_AC3
  64. Duration                                 : 1 h 33 min
  65. Bit rate mode                            : Constant
  66. Bit rate                                 : 448 kb/s
  67. Channel(s)                               : 6 channels
  68. Channel layout                           : L R C LFE Ls Rs
  69. Sampling rate                            : 48.0 kHz
  70. Frame rate                               : 31.250 FPS (1536 SPF)
  71. Bit depth                                : 16 bits
  72. Compression mode                         : Lossy
  73. Stream size                              : 300 MiB (1%)
  74. Title                                    : Scoob.2020.2160p.BluRay.REMUX.HEVC.DTS-HD.MA.5.1-FGT
  75. Language                                 : English
  76. Service kind                             : Complete Main
  77. Default                                  : No
  78. Forced                                   : No
  79. Original source medium                   : Blu-ray
  80. Audio #3
  81. ID                                       : 4
  82. ID in the original source medium         : 4354 (0x1102)
  83. Format                                   : AC-3
  84. Format/Info                              : Audio Coding 3
  85. Commercial name                          : Dolby Digital
  86. Codec ID                                 : A_AC3
  87. Duration                                 : 1 h 33 min
  88. Bit rate mode                            : Constant
  89. Bit rate                                 : 448 kb/s
  90. Channel(s)                               : 6 channels
  91. Channel layout                           : L R C LFE Ls Rs
  92. Sampling rate                            : 48.0 kHz
  93. Frame rate                               : 31.250 FPS (1536 SPF)
  94. Bit depth                                : 16 bits
  95. Compression mode                         : Lossy
  96. Stream size                              : 300 MiB (1%)
  97. Title                                    : Scoob.2020.2160p.BluRay.REMUX.HEVC.DTS-HD.MA.5.1-FGT
  98. Language                                 : Spanish
  99. Service kind                             : Complete Main
  100. Default                                  : No
  101. Forced                                   : No
  102. Original source medium                   : Blu-ray
  103. Text #1
  104. ID                                       : 5
  105. Format                                   : UTF-8
  106. Codec ID                                 : S_TEXT/UTF8
  107. Codec ID/Info                            : UTF-8 Plain Text
  108. Duration                                 : 1 h 26 min
  109. Bit rate                                 : 65 b/s
  110. Count of elements                        : 1483
  111. Stream size                              : 41.9 KiB (0%)
  112. Title                                    : English-SRT
  113. Language                                 : English
  114. Default                                  : Yes
  115. Forced                                   : No
  116. Text #2
  117. ID                                       : 6
  118. ID in the original source medium         : 4768 (0x12A0)
  119. Format                                   : PGS
  120. Muxing mode                              : zlib
  121. Codec ID                                 : S_HDMV/PGS
  122. Codec ID/Info                            : Picture based subtitle format used on BDs/HD-DVDs
  123. Duration                                 : 1 h 31 min
  124. Bit rate                                 : 49.6 kb/s
  125. Count of elements                        : 3770
  126. Stream size                              : 32.6 MiB (0%)
  127. Title                                    : English-PGS
  128. Language                                 : English
  129. Default                                  : No
  130. Forced                                   : No
  131. Original source medium                   : Blu-ray
  132. Text #3
  133. ID                                       : 7
  134. ID in the original source medium         : 4769 (0x12A1)
  135. Format                                   : PGS
  136. Muxing mode                              : zlib
  137. Codec ID                                 : S_HDMV/PGS
  138. Codec ID/Info                            : Picture based subtitle format used on BDs/HD-DVDs
  139. Duration                                 : 1 h 33 min
  140. Bit rate                                 : 33.0 kb/s
  141. Count of elements                        : 2752
  142. Stream size                              : 22.0 MiB (0%)
  143. Title                                    : French-PGS
  144. Language                                 : French
  145. Default                                  : No
  146. Forced                                   : No
  147. Original source medium                   : Blu-ray
  148. Text #4
  149. ID                                       : 8
  150. ID in the original source medium         : 4770 (0x12A2)
  151. Format                                   : PGS
  152. Muxing mode                              : zlib
  153. Codec ID                                 : S_HDMV/PGS
  154. Codec ID/Info                            : Picture based subtitle format used on BDs/HD-DVDs
  155. Duration                                 : 1 h 28 min
  156. Bit rate                                 : 38.6 kb/s
  157. Count of elements                        : 2740
  158. Stream size                              : 24.6 MiB (0%)
  159. Title                                    : Spanish-PGS
  160. Language                                 : Spanish
  161. Default                                  : No
  162. Forced                                   : No
  163. Original source medium                   : Blu-ray
  164. Text #5
  165. ID                                       : 9
  166. ID in the original source medium         : 4771 (0x12A3)
  167. Format                                   : PGS
  168. Muxing mode                              : zlib
  169. Codec ID                                 : S_HDMV/PGS
  170. Codec ID/Info                            : Picture based subtitle format used on BDs/HD-DVDs
  171. Duration                                 : 1 h 27 min
  172. Bit rate                                 : 483 b/s
  173. Count of elements                        : 32
  174. Stream size                              : 310 KiB (0%)
  175. Title                                    : Spanish-FORCED_PGS
  176. Language                                 : Spanish
  177. Default                                  : No
  178. Forced                                   : No
  179. Original source medium                   : Blu-ray
  180. Menu
  181. 00:00:00.000                             : en:Chapter 01
  182. 00:07:40.460                             : en:Chapter 02
  183. 00:15:15.372                             : en:Chapter 03
  184. 00:25:04.085                             : en:Chapter 04
  185. 00:34:40.203                             : en:Chapter 05
  186. 00:44:58.487                             : en:Chapter 06
  187. 00:53:22.240                             : en:Chapter 07
  188. 01:01:22.095                             : en:Chapter 08
  189. 01:10:20.049                             : en:Chapter 09
  190. 01:19:34.352                             : en:Chapter 10
  191. 01:27:17.732                             : en:Chapter 11
复制代码







回复

使用道具 举报

发表于 2020-7-23 19:54:13 | 显示全部楼层
哇塞  谢谢楼主
回复 支持 反对

使用道具 举报

 成长值: 2740

发表于 2020-7-25 09:11:57 | 显示全部楼层
楼主发贴辛苦了,谢谢楼主分享!我觉得蓝光电影网是注册对了!
回复 支持 反对

使用道具 举报

发表于 2020-7-27 06:46:18 | 显示全部楼层

这东西我收了!谢谢楼主!蓝光电影网真好!
回复 支持 反对

使用道具 举报

发表于 2020-7-29 09:59:50 | 显示全部楼层
    进来看看,哈哈哈。
回复 支持 反对

使用道具 举报

发表于 7 天前 | 显示全部楼层

这个帖子不回对不起自己!我想我是一天也不能离开蓝光电影网
回复 支持 反对

使用道具 举报

懒得打字嘛,点击右侧快捷回复 【右侧内容,后台自定义】
您需要登录后才可以回帖 登录 | 立即加入

本版积分规则

现在加入蓝光电影网,注册一个账号
上个主题 下个主题 快速回复 收藏帖子 返回列表 客服中心 搜索

手机版|小黑屋| 蓝光电影网 |网站地图 

Copyright © 2015-2019 Comsenz Inc.  Template by 蓝光电影论坛 All Rights Reserved.

Powered by 蓝光电影网 X3.4

特别声明:本站所有资源均由网上收集而来,版权归原影音公司所有,如果侵犯了你的权益,请通知我们,我们会及时删除侵权内容.

快速回复 返回顶部 返回列表