找回密码

蓝光电影网

查看: 195|回复: 3

[10bit.HDR] 甘地传 Gandhi.1982.2160p.UHD.BluRay.X265.10bit.HDR.TrueHD.7.1.Atmos-IAMABLE 56.30GB

[复制链接]

 成长值: 15345

发表于 2020-7-22 18:13:04 | 显示全部楼层 |阅读模式
甘地传 Gandhi.1982.2160p.UHD.BluRay.X265.10bit.HDR.TrueHD.7.1.Atmos-IAMABLE 56.30GB-1.jpeg

◎译  名 甘地传 / Richard Attenborough's Film: Gandhi / 甘地
◎片  名 Gandhi
◎年  代 1982
◎产  地 英国 / 印度 / 美国
◎类  别 剧情 / 传记 / 历史
◎语  言 英语
◎上映日期 1982-12-03
◎IMDb评分  8.0/10 from 214400 users
◎IMDb链接  https://www.imdb.com/title/tt0083987
◎豆瓣评分 8.6/10 from 28728 users
◎豆瓣链接 https://movie.douban.com/subject/1292238/
◎片  长 191 分钟
◎导  演 Richard Attenborough
◎编  剧 John Briley
◎主  演 本·金斯利 Ben Kingsley
       坎迪斯·伯根 Candice Bergen
       爱德华·福克斯 Edward Fox
       约翰·吉尔古德 John Gielgud
       约翰·米尔斯 John Mills
       马丁·辛 Martin Sheen
       丹尼尔·戴-刘易斯 Daniel Day-Lewis

◎标  签 传记 | 印度 | 甘地 | 历史 | 英国 | 人物 | 经典 | 1982
◎简  介

  
  本片记录了印度圣雄甘地史诗般传奇伟大的一生。1893年,24岁的甘地(本?金斯利 Ben Kingsley 饰)受邀前往南非任律师职,决心在当地带领印度移民开展非暴力不合作的抗议活动,并因此入狱。出狱后甘地回到祖国,在三八朗地区建立了高僧修行所,加入了国大党领导的印度独立运动,宣传非暴力不合作的斗争理念。运动中甘地曾四次入狱;在其不懈努力及国大党的带领下,印度独立终于提上议事日程,甘地也于1931年赴伦敦参加商讨独立的圆桌会议。然而随着独立的临近,印度国内穆斯林与印度教人民之间的宗教矛盾日益突出,甘地的非暴力不合作理念又面临着更为严峻的新挑战……
  本片获1982年奥斯卡最佳影片,最佳导演(理查德?阿滕伯勒Richard Attenborough),最佳男演员(本?金斯利),最佳原创剧本,最佳艺术指导,最佳摄影,最佳服装设计和最佳剪辑共八项大奖,并获奥斯卡最佳化妆,最佳电影音乐和最佳音效三项提名。
◎获奖情况  
  第55届奥斯卡金像奖(1983)
  最佳影片 理查德·阿滕伯勒
  最佳导演 理查德·阿滕伯勒
  最佳男主角 本·金斯利
  最佳原创剧本 约翰·布瑞雷
  最佳摄影 罗尼·泰勒 / Billy Williams
  最佳剪辑 John Bloom
  最佳音响(提名) Robin O'Donoghue / Gerry Humphreys / Simon Kaye
  最佳艺术指导 迈克尔·塞尔顿 / Robert W. Laing / 斯图尔特·克莱格
  最佳服装设计 John Mollo / Bhanu Athaiya
  最佳化妆(提名) Tom Smith
  最佳原创配乐(提名) 拉威·香卡 / 乔治·芬顿
  1. Video
  2. ID                                       : 1
  3. Format                                   : HEVC
  4. Format/Info                              : High Efficiency Video Coding
  5. Format profile                           : Main High@L4.1@High
  6. HDR format                               : SMPTE ST 2086, HDR10 compatible
  7. Codec ID                                 : V_MPEGH/ISO/HEVC
  8. Duration                                 : 3 h 11 min
  9. Bit rate                                 : 36.0 Mb/s
  10. Width                                    : 3 840 pixels
  11. Height                                   : 1 606 pixels
  12. Display aspect ratio                     : 2.40:1
  13. Frame rate mode                          : Constant
  14. Frame rate                               : 23.976 (24000/1001/189150) FPS
  15. Color space                              : YUV
  16. Chroma subsampling                       : 4:2:0 (Type 2)
  17. Bit depth                                : 10 bits
  18. Bits/(Pixel*Frame)                       : 0.244
  19. Stream size                              : 48.1 GiB (85%)
  20. Writing library                          : x265 3.47b120308dc64:[Windows][MSVC 1900][64 bit] 10bit
  21. Encoding settings                        : cpuid=1111039 / frame-threads=5 / numa-pools=36 / wpp / no-pmode / no-pme / no-psnr / no-ssim / log-level=2 / input-csp=1 / input-res=3840x1606 / interlace=0 / total-frames=275132 / level-idc=51 / high-tier=1 / uhd-bd=0 / ref=4 / no-allow-non-conformance / repeat-headers / annexb / aud / hrd / info / hash=0 / no-temporal-layers / no-open-gop / min-keyint=23 / keyint=250 / gop-lookahead=0 / bframes=4 / b-adapt=2 / b-pyramid / bframe-bias=0 / rc-lookahead=25 / lookahead-slices=4 / scenecut=40 / hist-scenecut=0 / radl=0 / no-splice / no-intra-refresh / ctu=64 / min-cu-size=8 / rect / no-amp / max-tu-size=32 / tu-inter-depth=1 / tu-intra-depth=1 / limit-tu=0 / rdoq-level=2 / dynamic-rd=0.00 / no-ssim-rd / signhide / no-tskip / nr-intra=0 / nr-inter=0 / no-constrained-intra / no-strong-intra-smoothing / max-merge=3 / limit-refs=3 / limit-modes / me=3 / subme=3 / merange=57 / temporal-mvp / no-frame-dup / no-hme / weightp / no-weightb / no-analyze-src-pics / deblock=-3:-3 / no-sao / no-sao-non-deblock / rd=4 / selective-sao=0 / no-early-skip / rskip / no-fast-intra / no-tskip-fast / no-cu-lossless / no-b-intra / no-splitrd-skip / rdpenalty=0 / psy-rd=2.00 / psy-rdoq=1.00 / no-rd-refine / no-lossless / cbqpoffs=0 / crqpoffs=0 / rc=crf / crf=16.5 / qcomp=0.60 / qpstep=4 / stats-write=0 / stats-read=0 / vbv-maxrate=160000 / vbv-bufsize=160000 / vbv-init=0.9 / crf-max=0.0 / crf-min=0.0 / ipratio=1.40 / pbratio=1.30 / aq-mode=2 / aq-strength=0.70 / cutree / zone-count=0 / no-strict-cbr / qg-size=32 / no-rc-grain / qpmax=69 / qpmin=0 / no-const-vbv / sar=1 / overscan=0 / videoformat=5 / range=0 / colorprim=9 / transfer=16 / colormatrix=9 / chromaloc=1 / chromaloc-top=2 / chromaloc-bottom=2 / display-window=0 / master-display=G(13250,34500)B(7500,3000)R(34000,16000)WP(15635,16450)L(40000000,50) / cll=3991,240 / min-luma=0 / max-luma=1023 / log2-max-poc-lsb=8 / vui-timing-info / vui-hrd-info / slices=1 / no-opt-qp-pps / no-opt-ref-list-length-pps / no-multi-pass-opt-rps / scenecut-bias=0.05 / hist-threshold=0.01 / no-opt-cu-delta-qp / no-aq-motion / hdr10 / hdr10-opt / no-dhdr10-opt / no-idr-recovery-sei / analysis-reuse-level=0 / analysis-save-reuse-level=0 / analysis-load-reuse-level=0 / scale-factor=0 / refine-intra=0 / refine-inter=0 / refine-mv=1 / refine-ctu-distortion=0 / no-limit-sao / ctu-info=0 / no-lowpass-dct / refine-analysis-type=0 / copy-pic=1 / max-ausize-factor=1.0 / no-dynamic-refine / no-single-sei / no-hevc-aq / no-svt / no-field / qp-adaptation-range=1.00 / no-scenecut-aware-qpconformance-window-offsets / right=0 / bottom=0 / decoder-max-rate=0
  22. Default                                  : Yes
  23. Forced                                   : No
  24. Color range                              : Limited
  25. Color primaries                          : BT.2020
  26. Transfer characteristics                 : PQ
  27. Matrix coefficients                      : BT.2020 non-constant
  28. Mastering display color primaries        : Display P3
  29. Mastering display luminance              : min: 0.0050 cd/m2, max: 4000 cd/m2
  30. Maximum Content Light Level              : 3991 cd/m2
  31. Maximum Frame-Average Light Level        : 240 cd/m2

  32. Audio #1
  33. ID                                       : 2
  34. Format                                   : MLP FBA 16-ch
  35. Format/Info                              : Meridian Lossless Packing FBA with 16-channel presentation
  36. Commercial name                          : Dolby TrueHD with Dolby Atmos
  37. Codec ID                                 : A_TRUEHD
  38. Duration                                 : 3 h 11 min
  39. Bit rate mode                            : Variable
  40. Bit rate                                 : 3 582 kb/s
  41. Maximum bit rate                         : 6 633 kb/s
  42. Channel(s)                               : 8 channels
  43. Channel layout                           : L R C LFE Ls Rs Lb Rb
  44. Sampling rate                            : 48.0 kHz
  45. Frame rate                               : 1 200.000 FPS (40 SPF)
  46. Compression mode                         : Lossless
  47. Stream size                              : 4.79 GiB (9%)
  48. Title                                    : Atmos 7.1
  49. Language                                 : English
  50. Default                                  : Yes
  51. Forced                                   : No
  52. Number of dynamic objects                : 11
  53. Bed channel count                        : 1 channel
  54. Bed channel configuration                : LFE

  55. Audio #2
  56. ID                                       : 3
  57. Format                                   : AC-3
  58. Format/Info                              : Audio Coding 3
  59. Commercial name                          : Dolby Digital
  60. Codec ID                                 : A_AC3
  61. Duration                                 : 3 h 11 min
  62. Bit rate mode                            : Constant
  63. Bit rate                                 : 640 kb/s
  64. Channel(s)                               : 6 channels
  65. Channel layout                           : L R C LFE Ls Rs
  66. Sampling rate                            : 48.0 kHz
  67. Frame rate                               : 31.250 FPS (1536 SPF)
  68. Compression mode                         : Lossy
  69. Stream size                              : 875 MiB (2%)
  70. Title                                    : AC-3 5.1
  71. Language                                 : English
  72. Service kind                             : Complete Main
  73. Default                                  : No
  74. Forced                                   : No

  75. Audio #3
  76. ID                                       : 4
  77. Format                                   : DTS XLL
  78. Format/Info                              : Digital Theater Systems
  79. Commercial name                          : DTS-HD Master Audio
  80. Codec ID                                 : A_DTS
  81. Duration                                 : 3 h 11 min
  82. Bit rate mode                            : Variable
  83. Bit rate                                 : 1 559 kb/s
  84. Channel(s)                               : 2 channels
  85. Sampling rate                            : 48.0 kHz
  86. Frame rate                               : 93.750 FPS (512 SPF)
  87. Bit depth                                : 16 bits
  88. Compression mode                         : Lossless
  89. Stream size                              : 2.08 GiB (4%)
  90. Title                                    : (Original Audio)
  91. Language                                 : English
  92. Default                                  : No
  93. Forced                                   : No

  94. Text #1
  95. ID                                       : 5
  96. Format                                   : UTF-8
  97. Codec ID                                 : S_TEXT/UTF8
  98. Codec ID/Info                            : UTF-8 Plain Text
  99. Duration                                 : 3 h 1 min
  100. Bit rate                                 : 49 b/s
  101. Count of elements                        : 2002
  102. Stream size                              : 65.6 KiB (0%)
  103. Title                                    : Stripped SRT
  104. Language                                 : English
  105. Default                                  : No
  106. Forced                                   : No

  107. Text #2
  108. ID                                       : 6
  109. Format                                   : UTF-8
  110. Codec ID                                 : S_TEXT/UTF8
  111. Codec ID/Info                            : UTF-8 Plain Text
  112. Duration                                 : 3 h 1 min
  113. Bit rate                                 : 48 b/s
  114. Count of elements                        : 1965
  115. Stream size                              : 65.1 KiB (0%)
  116. Title                                    : Full SRT
  117. Language                                 : English
  118. Default                                  : No
  119. Forced                                   : No

  120. Text #3
  121. ID                                       : 7
  122. Format                                   : UTF-8
  123. Codec ID                                 : S_TEXT/UTF8
  124. Codec ID/Info                            : UTF-8 Plain Text
  125. Duration                                 : 3 h 4 min
  126. Bit rate                                 : 52 b/s
  127. Count of elements                        : 2210
  128. Stream size                              : 70.9 KiB (0%)
  129. Title                                    : SDH SRT
  130. Language                                 : English
  131. Default                                  : No
  132. Forced                                   : No

  133. Text #4
  134. ID                                       : 8
  135. Format                                   : PGS
  136. Muxing mode                              : zlib
  137. Codec ID                                 : S_HDMV/PGS
  138. Codec ID/Info                            : Picture based subtitle format used on BDs/HD-DVDs
  139. Duration                                 : 3 h 1 min
  140. Bit rate                                 : 28.5 kb/s
  141. Count of elements                        : 3930
  142. Stream size                              : 37.2 MiB (0%)
  143. Title                                    : Full
  144. Language                                 : English
  145. Default                                  : No
  146. Forced                                   : No

  147. Text #5
  148. ID                                       : 9
  149. Format                                   : PGS
  150. Muxing mode                              : zlib
  151. Codec ID                                 : S_HDMV/PGS
  152. Codec ID/Info                            : Picture based subtitle format used on BDs/HD-DVDs
  153. Duration                                 : 3 h 1 min
  154. Bit rate                                 : 28.6 kb/s
  155. Count of elements                        : 3930
  156. Stream size                              : 37.2 MiB (0%)
  157. Title                                    : Full
  158. Language                                 : English
  159. Default                                  : No
  160. Forced                                   : No

  161. Text #6
  162. ID                                       : 10
  163. Format                                   : PGS
  164. Muxing mode                              : zlib
  165. Codec ID                                 : S_HDMV/PGS
  166. Codec ID/Info                            : Picture based subtitle format used on BDs/HD-DVDs
  167. Duration                                 : 3 h 4 min
  168. Bit rate                                 : 31.3 kb/s
  169. Count of elements                        : 4422
  170. Stream size                              : 41.2 MiB (0%)
  171. Title                                    : SDH
  172. Language                                 : English
  173. Default                                  : No
  174. Forced                                   : No

  175. Text #7
  176. ID                                       : 11
  177. Format                                   : PGS
  178. Muxing mode                              : zlib
  179. Codec ID                                 : S_HDMV/PGS
  180. Codec ID/Info                            : Picture based subtitle format used on BDs/HD-DVDs
  181. Duration                                 : 3 h 4 min
  182. Bit rate                                 : 31.3 kb/s
  183. Count of elements                        : 4422
  184. Stream size                              : 41.2 MiB (0%)
  185. Title                                    : SDH
  186. Language                                 : English
  187. Default                                  : No
  188. Forced                                   : No

  189. Text #8
  190. ID                                       : 12
  191. Format                                   : PGS
  192. Muxing mode                              : zlib
  193. Codec ID                                 : S_HDMV/PGS
  194. Codec ID/Info                            : Picture based subtitle format used on BDs/HD-DVDs
  195. Duration                                 : 3 h 10 min
  196. Bit rate                                 : 25.4 kb/s
  197. Count of elements                        : 3951
  198. Stream size                              : 34.6 MiB (0%)
  199. Title                                    : fre
  200. Language                                 : French
  201. Default                                  : No
  202. Forced                                   : No

  203. Text #9
  204. ID                                       : 13
  205. Format                                   : PGS
  206. Muxing mode                              : zlib
  207. Codec ID                                 : S_HDMV/PGS
  208. Codec ID/Info                            : Picture based subtitle format used on BDs/HD-DVDs
  209. Duration                                 : 3 h 10 min
  210. Bit rate                                 : 25.2 kb/s
  211. Count of elements                        : 3935
  212. Stream size                              : 34.3 MiB (0%)
  213. Title                                    : spa
  214. Language                                 : Spanish
  215. Default                                  : No
  216. Forced                                   : No

  217. Text #10
  218. ID                                       : 14
  219. Format                                   : PGS
  220. Muxing mode                              : zlib
  221. Codec ID                                 : S_HDMV/PGS
  222. Codec ID/Info                            : Picture based subtitle format used on BDs/HD-DVDs
  223. Duration                                 : 3 h 2 min
  224. Bit rate                                 : 24.0 kb/s
  225. Count of elements                        : 4071
  226. Stream size                              : 31.4 MiB (0%)
  227. Title                                    : spa
  228. Language                                 : Spanish
  229. Default                                  : No
  230. Forced                                   : No

  231. Text #11
  232. ID                                       : 15
  233. Format                                   : PGS
  234. Muxing mode                              : zlib
  235. Codec ID                                 : S_HDMV/PGS
  236. Codec ID/Info                            : Picture based subtitle format used on BDs/HD-DVDs
  237. Duration                                 : 3 h 2 min
  238. Bit rate                                 : 26.0 kb/s
  239. Count of elements                        : 3955
  240. Stream size                              : 34.0 MiB (0%)
  241. Title                                    : por
  242. Language                                 : Portuguese
  243. Default                                  : No
  244. Forced                                   : No

  245. Text #12
  246. ID                                       : 16
  247. Format                                   : PGS
  248. Muxing mode                              : zlib
  249. Codec ID                                 : S_HDMV/PGS
  250. Codec ID/Info                            : Picture based subtitle format used on BDs/HD-DVDs
  251. Duration                                 : 3 h 2 min
  252. Bit rate                                 : 30.0 kb/s
  253. Count of elements                        : 3900
  254. Stream size                              : 39.2 MiB (0%)
  255. Title                                    : por
  256. Language                                 : Portuguese
  257. Default                                  : No
  258. Forced                                   : No

  259. Text #13
  260. ID                                       : 17
  261. Format                                   : PGS
  262. Muxing mode                              : zlib
  263. Codec ID                                 : S_HDMV/PGS
  264. Codec ID/Info                            : Picture based subtitle format used on BDs/HD-DVDs
  265. Duration                                 : 3 h 10 min
  266. Bit rate                                 : 26.4 kb/s
  267. Count of elements                        : 3922
  268. Stream size                              : 35.9 MiB (0%)
  269. Title                                    : ita
  270. Language                                 : Italian
  271. Default                                  : No
  272. Forced                                   : No

  273. Text #14
  274. ID                                       : 18
  275. Format                                   : PGS
  276. Muxing mode                              : zlib
  277. Codec ID                                 : S_HDMV/PGS
  278. Codec ID/Info                            : Picture based subtitle format used on BDs/HD-DVDs
  279. Duration                                 : 3 h 2 min
  280. Bit rate                                 : 34.6 kb/s
  281. Count of elements                        : 3935
  282. Stream size                              : 45.3 MiB (0%)
  283. Title                                    : ger
  284. Language                                 : German
  285. Default                                  : No
  286. Forced                                   : No

  287. Text #15
  288. ID                                       : 19
  289. Format                                   : PGS
  290. Muxing mode                              : zlib
  291. Codec ID                                 : S_HDMV/PGS
  292. Codec ID/Info                            : Picture based subtitle format used on BDs/HD-DVDs
  293. Duration                                 : 3 h 10 min
  294. Bit rate                                 : 24.3 kb/s
  295. Count of elements                        : 2627
  296. Stream size                              : 33.0 MiB (0%)
  297. Title                                    : dut
  298. Language                                 : Dutch
  299. Default                                  : No
  300. Forced                                   : No

  301. Text #16
  302. ID                                       : 20
  303. Format                                   : PGS
  304. Muxing mode                              : zlib
  305. Codec ID                                 : S_HDMV/PGS
  306. Codec ID/Info                            : Picture based subtitle format used on BDs/HD-DVDs
  307. Duration                                 : 3 h 10 min
  308. Bit rate                                 : 22.8 kb/s
  309. Count of elements                        : 2614
  310. Stream size                              : 31.0 MiB (0%)
  311. Title                                    : swe
  312. Language                                 : Swedish
  313. Default                                  : No
  314. Forced                                   : No

  315. Text #17
  316. ID                                       : 21
  317. Format                                   : PGS
  318. Muxing mode                              : zlib
  319. Codec ID                                 : S_HDMV/PGS
  320. Codec ID/Info                            : Picture based subtitle format used on BDs/HD-DVDs
  321. Duration                                 : 3 h 2 min
  322. Bit rate                                 : 23.1 kb/s
  323. Count of elements                        : 2602
  324. Stream size                              : 30.2 MiB (0%)
  325. Title                                    : nor
  326. Language                                 : Norwegian
  327. Default                                  : No
  328. Forced                                   : No

  329. Text #18
  330. ID                                       : 22
  331. Format                                   : PGS
  332. Muxing mode                              : zlib
  333. Codec ID                                 : S_HDMV/PGS
  334. Codec ID/Info                            : Picture based subtitle format used on BDs/HD-DVDs
  335. Duration                                 : 3 h 2 min
  336. Bit rate                                 : 24.2 kb/s
  337. Count of elements                        : 2620
  338. Stream size                              : 31.7 MiB (0%)
  339. Title                                    : dan
  340. Language                                 : Danish
  341. Default                                  : No
  342. Forced                                   : No

  343. Text #19
  344. ID                                       : 23
  345. Format                                   : PGS
  346. Muxing mode                              : zlib
  347. Codec ID                                 : S_HDMV/PGS
  348. Codec ID/Info                            : Picture based subtitle format used on BDs/HD-DVDs
  349. Duration                                 : 3 h 2 min
  350. Bit rate                                 : 26.3 kb/s
  351. Count of elements                        : 2598
  352. Stream size                              : 34.4 MiB (0%)
  353. Title                                    : fin
  354. Language                                 : Finnish
  355. Default                                  : No
  356. Forced                                   : No

  357. Text #20
  358. ID                                       : 24
  359. Format                                   : PGS
  360. Muxing mode                              : zlib
  361. Codec ID                                 : S_HDMV/PGS
  362. Codec ID/Info                            : Picture based subtitle format used on BDs/HD-DVDs
  363. Duration                                 : 3 h 10 min
  364. Bit rate                                 : 27.8 kb/s
  365. Count of elements                        : 3969
  366. Stream size                              : 37.8 MiB (0%)
  367. Title                                    : ice
  368. Language                                 : Icelandic
  369. Default                                  : No
  370. Forced                                   : No

  371. Text #21
  372. ID                                       : 25
  373. Format                                   : PGS
  374. Muxing mode                              : zlib
  375. Codec ID                                 : S_HDMV/PGS
  376. Codec ID/Info                            : Picture based subtitle format used on BDs/HD-DVDs
  377. Duration                                 : 3 h 3 min
  378. Bit rate                                 : 21.8 kb/s
  379. Count of elements                        : 3959
  380. Stream size                              : 28.7 MiB (0%)
  381. Title                                    : gre
  382. Language                                 : Greek
  383. Default                                  : No
  384. Forced                                   : No

  385. Text #22
  386. ID                                       : 26
  387. Format                                   : PGS
  388. Muxing mode                              : zlib
  389. Codec ID                                 : S_HDMV/PGS
  390. Codec ID/Info                            : Picture based subtitle format used on BDs/HD-DVDs
  391. Duration                                 : 3 h 10 min
  392. Bit rate                                 : 24.2 kb/s
  393. Count of elements                        : 3898
  394. Stream size                              : 32.9 MiB (0%)
  395. Title                                    : tur
  396. Language                                 : Turkish
  397. Default                                  : No
  398. Forced                                   : No

  399. Text #23
  400. ID                                       : 27
  401. Format                                   : PGS
  402. Muxing mode                              : zlib
  403. Codec ID                                 : S_HDMV/PGS
  404. Codec ID/Info                            : Picture based subtitle format used on BDs/HD-DVDs
  405. Duration                                 : 3 h 2 min
  406. Bit rate                                 : 15.5 kb/s
  407. Count of elements                        : 3930
  408. Stream size                              : 20.2 MiB (0%)
  409. Title                                    : ara
  410. Language                                 : Arabic
  411. Default                                  : No
  412. Forced                                   : No

  413. Text #24
  414. ID                                       : 28
  415. Format                                   : PGS
  416. Muxing mode                              : zlib
  417. Codec ID                                 : S_HDMV/PGS
  418. Codec ID/Info                            : Picture based subtitle format used on BDs/HD-DVDs
  419. Duration                                 : 3 h 2 min
  420. Bit rate                                 : 20.2 kb/s
  421. Count of elements                        : 3949
  422. Stream size                              : 26.4 MiB (0%)
  423. Title                                    : heb
  424. Language                                 : Hebrew
  425. Default                                  : No
  426. Forced                                   : No

  427. Text #25
  428. ID                                       : 29
  429. Format                                   : PGS
  430. Muxing mode                              : zlib
  431. Codec ID                                 : S_HDMV/PGS
  432. Codec ID/Info                            : Picture based subtitle format used on BDs/HD-DVDs
  433. Duration                                 : 3 h 2 min
  434. Bit rate                                 : 24.1 kb/s
  435. Count of elements                        : 4078
  436. Stream size                              : 31.6 MiB (0%)
  437. Title                                    : chi
  438. Language                                 : Chinese
  439. Default                                  : No
  440. Forced                                   : No

  441. Text #26
  442. ID                                       : 30
  443. Format                                   : PGS
  444. Muxing mode                              : zlib
  445. Codec ID                                 : S_HDMV/PGS
  446. Codec ID/Info                            : Picture based subtitle format used on BDs/HD-DVDs
  447. Duration                                 : 3 h 2 min
  448. Bit rate                                 : 25.1 kb/s
  449. Count of elements                        : 4139
  450. Stream size                              : 32.9 MiB (0%)
  451. Title                                    : chi
  452. Language                                 : Chinese
  453. Default                                  : No
  454. Forced                                   : No

  455. Text #27
  456. ID                                       : 31
  457. Format                                   : PGS
  458. Muxing mode                              : zlib
  459. Codec ID                                 : S_HDMV/PGS
  460. Codec ID/Info                            : Picture based subtitle format used on BDs/HD-DVDs
  461. Duration                                 : 3 h 3 min
  462. Bit rate                                 : 18.4 kb/s
  463. Count of elements                        : 3929
  464. Stream size                              : 24.1 MiB (0%)
  465. Title                                    : kor
  466. Language                                 : Korean
  467. Default                                  : No
  468. Forced                                   : No

  469. Text #28
  470. ID                                       : 32
  471. Format                                   : PGS
  472. Muxing mode                              : zlib
  473. Codec ID                                 : S_HDMV/PGS
  474. Codec ID/Info                            : Picture based subtitle format used on BDs/HD-DVDs
  475. Duration                                 : 3 h 2 min
  476. Bit rate                                 : 25.1 kb/s
  477. Count of elements                        : 3942
  478. Stream size                              : 32.8 MiB (0%)
  479. Title                                    : tha
  480. Language                                 : Thai
  481. Default                                  : No
  482. Forced                                   : No

  483. Menu
  484. 00:00:00.000                             : en:Chapter 01
  485. 00:05:59.484                             : en:Chapter 02
  486. 00:11:13.255                             : en:Chapter 03
  487. 00:17:10.154                             : en:Chapter 04
  488. 00:25:54.052                             : en:Chapter 05
  489. 00:31:14.706                             : en:Chapter 06
  490. 00:36:10.209                             : en:Chapter 07
  491. 00:41:21.687                             : en:Chapter 08
  492. 00:45:24.930                             : en:Chapter 09
  493. 00:48:33.994                             : en:Chapter 10
  494. 00:56:18.541                             : en:Chapter 11
  495. 01:03:11.996                             : en:Chapter 12
  496. 01:11:47.219                             : en:Chapter 13
  497. 01:14:37.097                             : en:Chapter 14
  498. 01:24:00.869                             : en:Chapter 15
  499. 01:29:22.106                             : en:Chapter 16
  500. 01:32:00.384                             : en:Chapter 17
  501. 01:41:15.730                             : en:Chapter 18
  502. 01:44:48.985                             : en:Chapter 19
  503. 01:55:52.564                             : en:Chapter 20
  504. 01:58:40.190                             : en:Chapter 21
  505. 02:05:59.712                             : en:Chapter 22
  506. 02:14:33.851                             : en:Chapter 23
  507. 02:20:52.187                             : en:Chapter 24
  508. 02:25:44.479                             : en:Chapter 25
  509. 02:31:09.095                             : en:Chapter 26
  510. 02:36:54.649                             : en:Chapter 27
  511. 02:41:28.047                             : en:Chapter 28
  512. 02:42:39.368                             : en:Chapter 29
  513. 02:47:57.353                             : en:Chapter 30
  514. 02:54:18.358                             : en:Chapter 31
  515. 03:02:02.947                             : en:Chapter 32
复制代码







回复

使用道具 举报

发表于 2020-7-22 18:43:09 | 显示全部楼层

楼主太厉害了!楼主,电影应该很好看我觉得蓝光电影网真是个好地方!
回复 支持 反对

使用道具 举报

发表于 2020-7-24 15:15:28 | 显示全部楼层
楼主发贴辛苦了,谢谢楼主分享!我觉得蓝光电影网是注册对了!
回复 支持 反对

使用道具 举报

发表于 2020-7-30 18:14:29 | 显示全部楼层
下载来看看确实是不是4K,可以回帖还要等时间,这个确实不爽。
回复 支持 反对

使用道具 举报

懒得打字嘛,点击右侧快捷回复 【右侧内容,后台自定义】
您需要登录后才可以回帖 登录 | 立即加入

本版积分规则

现在加入蓝光电影网,注册一个账号
上个主题 下个主题 快速回复 收藏帖子 返回列表 客服中心 搜索

手机版|小黑屋| 蓝光电影网 |网站地图 

Copyright © 2015-2019 Comsenz Inc.  Template by 蓝光电影论坛 All Rights Reserved.

Powered by 蓝光电影网 X3.4

特别声明:本站所有资源均由网上收集而来,版权归原影音公司所有,如果侵犯了你的权益,请通知我们,我们会及时删除侵权内容.

快速回复 返回顶部 返回列表