找回密码

蓝光电影网

查看: 128|回复: 1

[8bit.SDR] 甜心先生 Jerry.Maguire.1996.2160p.BluRay.x264.8bit.SDR.DTS-HD.MA.TrueHD.7.1.Atmos-SWTYBLZ 72.31GB

[复制链接]

 成长值: 15345

发表于 2020-7-22 18:13:00 | 显示全部楼层 |阅读模式
甜心先生 Jerry.Maguire.1996.2160p.BluRay.x264.8bit.SDR.DTS-HD.MA.TrueHD.7.1.Atmos-SWTYBLZ 72.31GB-1.jpeg

◎译  名 甜心先生 / Jerry Maguire - Spiel des Lebens / 征服情海(台) / 杰里·马奎尔
◎片  名 Jerry Maguire
◎年  代 1996
◎产  地 美国
◎类  别 剧情 / 喜剧 / 爱情 / 运动
◎语  言 英语 / 美国手语
◎上映日期 1996-12-13(美国)
◎IMDb评分  7.3/10 from 234886 users
◎IMDb链接  https://www.imdb.com/title/tt0116695
◎豆瓣评分 7.4/10 from 33252 users
◎豆瓣链接 https://movie.douban.com/subject/1293158/
◎片  长 139分钟
◎导  演 卡梅伦·克罗 Cameron Crowe
◎编  剧 卡梅伦·克罗 Cameron Crowe
◎主  演 汤姆·克鲁斯 Tom Cruise
       小库珀·古丁 Cuba Gooding Jr.
       蕾妮·齐薇格 Renée Zellweger
       凯利·普雷斯顿 Kelly Preston
       杰瑞·奥康奈尔 Jerry O'Connell
       杰·摩尔 Jay Mohr
       邦尼·亨特 Bonnie Hunt
       雷吉娜·金 Regina King
       乔纳森·利普尼基 Jonathan Lipnicki
       托德·路易斯 Todd Louiso
       马克·佩灵顿 Mark Pellington
       杰里米·苏莱泽 Jeremy Suarez
       Jann Wenner
       Nada Despotovich
       亚利桑德拉·温特沃斯 Alexandra Wentworth
       Aries Spears
       温妮·霍尔兹曼 Winnie Holzman
       苏珊·诺弗利特 Susan Norfleet
       海登·瓦尔希 Hynden Walch
       格伦·弗雷 Glenn Frey
       唐纳尔·罗格 Donal Logue
       汤姆·加洛普 Tom Gallop
       安吉拉·戈塔尔斯 Angela Goethals
       Rick Johnson
       Lightfield Lewis
       Jerry Cantrell
       托比·胡斯 Toby Huss
       德雷克·贝尔 Drake Bell
       克里斯汀·凯文诺 Christine Cavanaugh
       Russel Lunday
       埃里克·斯托尔兹 Eric Stoltz
       拉蒙·约翰逊j Lamont Johnson
       Brent Barry
       西奥·格林利 Theo Greenly
       Jordan Ross
       Thomas J. Reilly
       Reagan Gomez-Preston
       Klair Bybee
       刘玉玲 Lucy Liu
       Justina Vail
       萨曼塔·史密斯 Samantha Smith
       伊万娜·米利塞维奇 Ivana Milicevic
       丽萨·罗唐迪 Lisa Rotondi
       Lisa Stahl
       艾米丽·普格特 Emily Procter
       Stacey Williams
       Lisa Ann Hadley
       艾丽森·阿米塔奇 Alison Armitage
       丽贝卡·里格 Rebecca Rigg
       Roy Firestone
       Al Michaels
       Dan Dierdorf
       Frank Gifford
       梅尔·基佩尔 Mel Kiper
       Jeffrey Lurie
       Drew Rosenhaus
       Richie Kotite
       Tim McDonald
       Mike Tirico
       Wayne Fontes
       Mike White

◎标  签 美国 | 爱情 | 励志 | TomCruise | 美国电影 | 剧情 | 1996 | RenéeZellweger
◎简  介

  
  杰里(汤姆·克鲁斯 Tom Cruise饰)待人和善,仪表不凡,是个出色的体育界经纪人。也许连天都妒嫉这个完美的男人,决定给他一个打击,杰里因为一篇流畅出色的发言稿而招来上司不满,导致被炒鱿鱼。漂亮女友离他而去,职业前景也陷入一片迷茫,从巅峰跌入谷底的杰克在临走前奋起疾呼,动员同事们跟他离开公司一起创业。结果,杰克只带走了一条鱼,还有愿意和他干一番事业的会计多萝西(芮妮·齐薇格 Renée Zellweger饰)。
  现在,杰克的客户只剩下一名二流的黑人橄榄球员罗德(小库珀·古丁 Cuba Gooding Jr饰)。万事开头难,杰克和多萝西还没有完全搞清楚要如何开始创业生涯。看来,要想迎来事业的第二春,杰克还要狠狠摸爬滚打一番;也正是在逆境中,他得以实践自己的职业信念,并寻获一生中的最爱。
◎获奖情况  
  第69届奥斯卡金像奖(1997)
  最佳影片(提名) Richard Sakai / 卡梅伦·克罗 / 詹姆斯·L·布鲁克斯 / 劳伦斯·马克
  最佳男主角(提名) 汤姆·克鲁斯
  最佳男配角 小库珀·古丁
  最佳原创剧本(提名) 卡梅伦·克罗
  最佳剪辑(提名) 乔·哈欣
  第22届报知映画赏(1997)
  海外作品奖 卡梅伦·克罗
  1. Video
  2. ID                                       : 1
  3. Format                                   : AVC
  4. Format/Info                              : Advanced Video Codec
  5. Format profile                           : High@L4.1
  6. Format settings                          : CABAC / 5 Ref Frames
  7. Format settings, CABAC                   : Yes
  8. Format settings, Reference frames        : 5 frames
  9. Codec ID                                 : V_MPEG4/ISO/AVC
  10. Duration                                 : 2 h 18 min
  11. Bit rate                                 : 65.9 Mb/s
  12. Width                                    : 3 840 pixels
  13. Height                                   : 2 076 pixels
  14. Display aspect ratio                     : 1.85:1
  15. Frame rate mode                          : Constant
  16. Frame rate                               : 23.976 (24000/1001/189150) FPS
  17. Color space                              : YUV
  18. Chroma subsampling                       : 4:2:0
  19. Bit depth                                : 8 bits
  20. Scan type                                : Progressive
  21. Bits/(Pixel*Frame)                       : 0.345
  22. Stream size                              : 63.7 GiB (89%)
  23. Title                                    : Jerry.Maguire.1996.2160p.BluRay.x264.8bit.SDR.DTS-HD.MA.TrueHD.7.1.Atmos-SWTYBLZ
  24. Writing library                          : x264 core 157 r2935 545de2f
  25. Encoding settings                        : cabac=1 / ref=5 / deblock=1:-1:-1 / analyse=0x3:0x113 / me=umh / subme=10 / psy=1 / psy_rd=1.00:0.15 / mixed_ref=1 / me_range=48 / chroma_me=1 / trellis=2 / 8x8dct=1 / cqm=0 / deadzone=21,11 / fast_pskip=1 / chroma_qp_offset=-3 / threads=48 / lookahead_threads=4 / sliced_threads=0 / nr=0 / decimate=0 / interlaced=0 / bluray_compat=0 / constrained_intra=0 / bframes=3 / b_pyramid=2 / b_adapt=2 / b_bias=0 / direct=3 / weightb=1 / open_gop=0 / weightp=2 / keyint=250 / keyint_min=23 / scenecut=40 / intra_refresh=0 / rc_lookahead=50 / rc=crf / mbtree=1 / crf=22.0 / qcomp=0.60 / qpmin=0 / qpmax=69 / qpstep=4 / ip_ratio=1.40 / aq=1:1.00
  26. Default                                  : Yes
  27. Forced                                   : No

  28. Audio #1
  29. ID                                       : 2
  30. ID in the original source medium         : 4352 (0x1100)
  31. Format                                   : MLP FBA 16-ch
  32. Format/Info                              : Meridian Lossless Packing FBA with 16-channel presentation
  33. Commercial name                          : Dolby TrueHD with Dolby Atmos
  34. Codec ID                                 : A_TRUEHD
  35. Duration                                 : 2 h 18 min
  36. Bit rate mode                            : Variable
  37. Bit rate                                 : 3 394 kb/s
  38. Maximum bit rate                         : 4 878 kb/s
  39. Channel(s)                               : 8 channels
  40. Channel layout                           : L R C LFE Ls Rs Lb Rb
  41. Sampling rate                            : 48.0 kHz
  42. Frame rate                               : 1 200.000 FPS (40 SPF)
  43. Compression mode                         : Lossless
  44. Stream size                              : 3.28 GiB (5%)
  45. Title                                    : Jerry.Maguire.1996.2160p.BluRay.x264.8bit.SDR.DTS-HD.MA.TrueHD.7.1.Atmos-SWTYBLZ
  46. Language                                 : English
  47. Default                                  : Yes
  48. Forced                                   : No
  49. Original source medium                   : Blu-ray
  50. Number of dynamic objects                : 11
  51. Bed channel count                        : 1 channel
  52. Bed channel configuration                : LFE

  53. Audio #2
  54. ID                                       : 3
  55. Format                                   : DTS XLL
  56. Format/Info                              : Digital Theater Systems
  57. Commercial name                          : DTS-HD Master Audio
  58. Codec ID                                 : A_DTS
  59. Duration                                 : 2 h 18 min
  60. Bit rate mode                            : Variable
  61. Bit rate                                 : 3 964 kb/s
  62. Channel(s)                               : 8 channels
  63. Channel layout                           : C L R LFE Lb Rb Lss Rss
  64. Sampling rate                            : 48.0 kHz
  65. Frame rate                               : 93.750 FPS (512 SPF)
  66. Bit depth                                : 24 bits
  67. Compression mode                         : Lossless
  68. Stream size                              : 3.84 GiB (5%)
  69. Title                                    : Jerry.Maguire.1996.2160p.BluRay.x264.8bit.SDR.DTS-HD.MA.TrueHD.7.1.Atmos-SWTYBLZ
  70. Language                                 : English
  71. Default                                  : No
  72. Forced                                   : No

  73. Audio #3
  74. ID                                       : 4
  75. ID in the original source medium         : 4352 (0x1100)
  76. Format                                   : AC-3
  77. Format/Info                              : Audio Coding 3
  78. Commercial name                          : Dolby Digital
  79. Codec ID                                 : A_AC3
  80. Duration                                 : 2 h 18 min
  81. Bit rate mode                            : Constant
  82. Bit rate                                 : 640 kb/s
  83. Channel(s)                               : 6 channels
  84. Channel layout                           : L R C LFE Ls Rs
  85. Sampling rate                            : 48.0 kHz
  86. Frame rate                               : 31.250 FPS (1536 SPF)
  87. Compression mode                         : Lossy
  88. Stream size                              : 634 MiB (1%)
  89. Title                                    : Jerry.Maguire.1996.2160p.BluRay.x264.8bit.SDR.DTS-HD.MA.TrueHD.7.1.Atmos-SWTYBLZ
  90. Language                                 : English
  91. Service kind                             : Complete Main
  92. Default                                  : No
  93. Forced                                   : No
  94. Original source medium                   : Blu-ray

  95. Text #1
  96. ID                                       : 5
  97. Format                                   : UTF-8
  98. Codec ID                                 : S_TEXT/UTF8
  99. Codec ID/Info                            : UTF-8 Plain Text
  100. Duration                                 : 2 h 12 min
  101. Bit rate                                 : 70 b/s
  102. Count of elements                        : 1762
  103. Stream size                              : 68.4 KiB (0%)
  104. Title                                    : English-SRT
  105. Language                                 : English
  106. Default                                  : Yes
  107. Forced                                   : No

  108. Text #2
  109. ID                                       : 6
  110. ID in the original source medium         : 4768 (0x12A0)
  111. Format                                   : PGS
  112. Muxing mode                              : zlib
  113. Codec ID                                 : S_HDMV/PGS
  114. Codec ID/Info                            : Picture based subtitle format used on BDs/HD-DVDs
  115. Duration                                 : 2 h 17 min
  116. Bit rate                                 : 44.4 kb/s
  117. Count of elements                        : 4123
  118. Stream size                              : 43.7 MiB (0%)
  119. Title                                    : English-SDH-PGS
  120. Language                                 : English
  121. Default                                  : No
  122. Forced                                   : No
  123. Original source medium                   : Blu-ray

  124. Text #3
  125. ID                                       : 7
  126. ID in the original source medium         : 4769 (0x12A1)
  127. Format                                   : PGS
  128. Muxing mode                              : zlib
  129. Codec ID                                 : S_HDMV/PGS
  130. Codec ID/Info                            : Picture based subtitle format used on BDs/HD-DVDs
  131. Duration                                 : 2 h 12 min
  132. Bit rate                                 : 40.6 kb/s
  133. Count of elements                        : 3539
  134. Stream size                              : 38.6 MiB (0%)
  135. Title                                    : English-PGS
  136. Language                                 : English
  137. Default                                  : No
  138. Forced                                   : No
  139. Original source medium                   : Blu-ray

  140. Text #4
  141. ID                                       : 8
  142. ID in the original source medium         : 4770 (0x12A2)
  143. Format                                   : PGS
  144. Muxing mode                              : zlib
  145. Codec ID                                 : S_HDMV/PGS
  146. Codec ID/Info                            : Picture based subtitle format used on BDs/HD-DVDs
  147. Duration                                 : 2 h 17 min
  148. Bit rate                                 : 44.4 kb/s
  149. Count of elements                        : 4167
  150. Stream size                              : 43.8 MiB (0%)
  151. Title                                    : English-SDH-PGS
  152. Language                                 : English
  153. Default                                  : No
  154. Forced                                   : No
  155. Original source medium                   : Blu-ray

  156. Text #5
  157. ID                                       : 9
  158. ID in the original source medium         : 4771 (0x12A3)
  159. Format                                   : PGS
  160. Muxing mode                              : zlib
  161. Codec ID                                 : S_HDMV/PGS
  162. Codec ID/Info                            : Picture based subtitle format used on BDs/HD-DVDs
  163. Duration                                 : 2 h 12 min
  164. Bit rate                                 : 33.0 kb/s
  165. Count of elements                        : 3031
  166. Stream size                              : 31.3 MiB (0%)
  167. Title                                    : English-PGS
  168. Language                                 : English
  169. Default                                  : No
  170. Forced                                   : No
  171. Original source medium                   : Blu-ray

  172. Text #6
  173. ID                                       : 10
  174. ID in the original source medium         : 4772 (0x12A4)
  175. Format                                   : PGS
  176. Muxing mode                              : zlib
  177. Codec ID                                 : S_HDMV/PGS
  178. Codec ID/Info                            : Picture based subtitle format used on BDs/HD-DVDs
  179. Duration                                 : 2 h 12 min
  180. Bit rate                                 : 18.9 kb/s
  181. Count of elements                        : 2988
  182. Stream size                              : 18.0 MiB (0%)
  183. Title                                    : Arabic-PGS
  184. Language                                 : Arabic
  185. Default                                  : No
  186. Forced                                   : No
  187. Original source medium                   : Blu-ray

  188. Text #7
  189. ID                                       : 11
  190. ID in the original source medium         : 4773 (0x12A5)
  191. Format                                   : PGS
  192. Muxing mode                              : zlib
  193. Codec ID                                 : S_HDMV/PGS
  194. Codec ID/Info                            : Picture based subtitle format used on BDs/HD-DVDs
  195. Duration                                 : 2 h 12 min
  196. Bit rate                                 : 36.0 kb/s
  197. Count of elements                        : 4244
  198. Stream size                              : 34.2 MiB (0%)
  199. Title                                    : Chinese-PGS
  200. Language                                 : Chinese
  201. Default                                  : No
  202. Forced                                   : No
  203. Original source medium                   : Blu-ray

  204. Text #8
  205. ID                                       : 12
  206. ID in the original source medium         : 4773 (0x12A5)
  207. Format                                   : PGS
  208. Muxing mode                              : zlib
  209. Codec ID                                 : S_HDMV/PGS
  210. Codec ID/Info                            : Picture based subtitle format used on BDs/HD-DVDs
  211. Duration                                 : 2 h 2 min
  212. Bit rate                                 : 613 b/s
  213. Count of elements                        : 66
  214. Stream size                              : 552 KiB (0%)
  215. Title                                    : Chinese-PGS
  216. Language                                 : Chinese
  217. Default                                  : No
  218. Forced                                   : No
  219. Original source medium                   : Blu-ray

  220. Text #9
  221. ID                                       : 13
  222. ID in the original source medium         : 4774 (0x12A6)
  223. Format                                   : PGS
  224. Muxing mode                              : zlib
  225. Codec ID                                 : S_HDMV/PGS
  226. Codec ID/Info                            : Picture based subtitle format used on BDs/HD-DVDs
  227. Duration                                 : 2 h 12 min
  228. Bit rate                                 : 28.8 kb/s
  229. Count of elements                        : 3154
  230. Stream size                              : 27.3 MiB (0%)
  231. Title                                    : Chinese-PGS
  232. Language                                 : Chinese
  233. Default                                  : No
  234. Forced                                   : No
  235. Original source medium                   : Blu-ray

  236. Text #10
  237. ID                                       : 14
  238. ID in the original source medium         : 4775 (0x12A7)
  239. Format                                   : PGS
  240. Muxing mode                              : zlib
  241. Codec ID                                 : S_HDMV/PGS
  242. Codec ID/Info                            : Picture based subtitle format used on BDs/HD-DVDs
  243. Duration                                 : 2 h 12 min
  244. Bit rate                                 : 30.9 kb/s
  245. Count of elements                        : 2976
  246. Stream size                              : 29.4 MiB (0%)
  247. Title                                    : Croatian-PGS
  248. Language                                 : Croatian
  249. Default                                  : No
  250. Forced                                   : No
  251. Original source medium                   : Blu-ray

  252. Text #11
  253. ID                                       : 15
  254. ID in the original source medium         : 4776 (0x12A8)
  255. Format                                   : PGS
  256. Muxing mode                              : zlib
  257. Codec ID                                 : S_HDMV/PGS
  258. Codec ID/Info                            : Picture based subtitle format used on BDs/HD-DVDs
  259. Duration                                 : 2 h 12 min
  260. Bit rate                                 : 29.0 kb/s
  261. Count of elements                        : 2992
  262. Stream size                              : 27.5 MiB (0%)
  263. Title                                    : Czech-PGS
  264. Language                                 : Czech
  265. Default                                  : No
  266. Forced                                   : No
  267. Original source medium                   : Blu-ray

  268. Text #12
  269. ID                                       : 16
  270. ID in the original source medium         : 4777 (0x12A9)
  271. Format                                   : PGS
  272. Muxing mode                              : zlib
  273. Codec ID                                 : S_HDMV/PGS
  274. Codec ID/Info                            : Picture based subtitle format used on BDs/HD-DVDs
  275. Duration                                 : 2 h 17 min
  276. Bit rate                                 : 27.4 kb/s
  277. Count of elements                        : 2476
  278. Stream size                              : 27.0 MiB (0%)
  279. Title                                    : Danish-PGS
  280. Language                                 : Danish
  281. Default                                  : No
  282. Forced                                   : No
  283. Original source medium                   : Blu-ray

  284. Text #13
  285. ID                                       : 17
  286. ID in the original source medium         : 4778 (0x12AA)
  287. Format                                   : PGS
  288. Muxing mode                              : zlib
  289. Codec ID                                 : S_HDMV/PGS
  290. Codec ID/Info                            : Picture based subtitle format used on BDs/HD-DVDs
  291. Duration                                 : 2 h 12 min
  292. Bit rate                                 : 29.2 kb/s
  293. Count of elements                        : 3030
  294. Stream size                              : 27.8 MiB (0%)
  295. Title                                    : Dutch-PGS
  296. Language                                 : Dutch
  297. Default                                  : No
  298. Forced                                   : No
  299. Original source medium                   : Blu-ray

  300. Text #14
  301. ID                                       : 18
  302. ID in the original source medium         : 4779 (0x12AB)
  303. Format                                   : PGS
  304. Muxing mode                              : zlib
  305. Codec ID                                 : S_HDMV/PGS
  306. Codec ID/Info                            : Picture based subtitle format used on BDs/HD-DVDs
  307. Duration                                 : 2 h 12 min
  308. Bit rate                                 : 28.2 kb/s
  309. Count of elements                        : 2509
  310. Stream size                              : 26.8 MiB (0%)
  311. Title                                    : Finnish-PGS
  312. Language                                 : Finnish
  313. Default                                  : No
  314. Forced                                   : No
  315. Original source medium                   : Blu-ray

  316. Text #15
  317. ID                                       : 19
  318. ID in the original source medium         : 4780 (0x12AC)
  319. Format                                   : PGS
  320. Muxing mode                              : zlib
  321. Codec ID                                 : S_HDMV/PGS
  322. Codec ID/Info                            : Picture based subtitle format used on BDs/HD-DVDs
  323. Duration                                 : 2 h 17 min
  324. Bit rate                                 : 31.2 kb/s
  325. Count of elements                        : 3034
  326. Stream size                              : 30.8 MiB (0%)
  327. Title                                    : French-PGS
  328. Language                                 : French
  329. Default                                  : No
  330. Forced                                   : No
  331. Original source medium                   : Blu-ray

  332. Text #16
  333. ID                                       : 20
  334. ID in the original source medium         : 4781 (0x12AD)
  335. Format                                   : PGS
  336. Muxing mode                              : zlib
  337. Codec ID                                 : S_HDMV/PGS
  338. Codec ID/Info                            : Picture based subtitle format used on BDs/HD-DVDs
  339. Duration                                 : 2 h 12 min
  340. Bit rate                                 : 38.8 kb/s
  341. Count of elements                        : 3194
  342. Stream size                              : 36.9 MiB (0%)
  343. Title                                    : German-PGS
  344. Language                                 : German
  345. Default                                  : No
  346. Forced                                   : No
  347. Original source medium                   : Blu-ray

  348. Text #17
  349. ID                                       : 21
  350. ID in the original source medium         : 4782 (0x12AE)
  351. Format                                   : PGS
  352. Muxing mode                              : zlib
  353. Codec ID                                 : S_HDMV/PGS
  354. Codec ID/Info                            : Picture based subtitle format used on BDs/HD-DVDs
  355. Duration                                 : 2 h 12 min
  356. Bit rate                                 : 30.7 kb/s
  357. Count of elements                        : 3009
  358. Stream size                              : 29.2 MiB (0%)
  359. Title                                    : Greek-PGS
  360. Language                                 : Greek
  361. Default                                  : No
  362. Forced                                   : No
  363. Original source medium                   : Blu-ray

  364. Text #18
  365. ID                                       : 22
  366. ID in the original source medium         : 4783 (0x12AF)
  367. Format                                   : PGS
  368. Muxing mode                              : zlib
  369. Codec ID                                 : S_HDMV/PGS
  370. Codec ID/Info                            : Picture based subtitle format used on BDs/HD-DVDs
  371. Duration                                 : 2 h 12 min
  372. Bit rate                                 : 30.8 kb/s
  373. Count of elements                        : 2987
  374. Stream size                              : 29.3 MiB (0%)
  375. Title                                    : Hungarian-PGS
  376. Language                                 : Hungarian
  377. Default                                  : No
  378. Forced                                   : No
  379. Original source medium                   : Blu-ray

  380. Text #19
  381. ID                                       : 23
  382. ID in the original source medium         : 4784 (0x12B0)
  383. Format                                   : PGS
  384. Muxing mode                              : zlib
  385. Codec ID                                 : S_HDMV/PGS
  386. Codec ID/Info                            : Picture based subtitle format used on BDs/HD-DVDs
  387. Duration                                 : 2 h 12 min
  388. Bit rate                                 : 34.2 kb/s
  389. Count of elements                        : 3276
  390. Stream size                              : 32.5 MiB (0%)
  391. Title                                    : Italian-PGS
  392. Language                                 : Italian
  393. Default                                  : No
  394. Forced                                   : No
  395. Original source medium                   : Blu-ray

  396. Text #20
  397. ID                                       : 24
  398. ID in the original source medium         : 4785 (0x12B1)
  399. Format                                   : PGS
  400. Muxing mode                              : zlib
  401. Codec ID                                 : S_HDMV/PGS
  402. Codec ID/Info                            : Picture based subtitle format used on BDs/HD-DVDs
  403. Duration                                 : 2 h 12 min
  404. Bit rate                                 : 32.6 kb/s
  405. Count of elements                        : 3577
  406. Stream size                              : 31.0 MiB (0%)
  407. Title                                    : Korean-PGS
  408. Language                                 : Korean
  409. Default                                  : No
  410. Forced                                   : No
  411. Original source medium                   : Blu-ray

  412. Text #21
  413. ID                                       : 25
  414. ID in the original source medium         : 4786 (0x12B2)
  415. Format                                   : PGS
  416. Muxing mode                              : zlib
  417. Codec ID                                 : S_HDMV/PGS
  418. Codec ID/Info                            : Picture based subtitle format used on BDs/HD-DVDs
  419. Duration                                 : 2 h 12 min
  420. Bit rate                                 : 27.8 kb/s
  421. Count of elements                        : 2510
  422. Stream size                              : 26.4 MiB (0%)
  423. Title                                    : Norwegian-PGS
  424. Language                                 : Norwegian
  425. Default                                  : No
  426. Forced                                   : No
  427. Original source medium                   : Blu-ray

  428. Text #22
  429. ID                                       : 26
  430. ID in the original source medium         : 4787 (0x12B3)
  431. Format                                   : PGS
  432. Muxing mode                              : zlib
  433. Codec ID                                 : S_HDMV/PGS
  434. Codec ID/Info                            : Picture based subtitle format used on BDs/HD-DVDs
  435. Duration                                 : 2 h 12 min
  436. Bit rate                                 : 30.4 kb/s
  437. Count of elements                        : 2983
  438. Stream size                              : 28.9 MiB (0%)
  439. Title                                    : Polish-PGS
  440. Language                                 : Polish
  441. Default                                  : No
  442. Forced                                   : No
  443. Original source medium                   : Blu-ray

  444. Text #23
  445. ID                                       : 27
  446. ID in the original source medium         : 4788 (0x12B4)
  447. Format                                   : PGS
  448. Muxing mode                              : zlib
  449. Codec ID                                 : S_HDMV/PGS
  450. Codec ID/Info                            : Picture based subtitle format used on BDs/HD-DVDs
  451. Duration                                 : 2 h 12 min
  452. Bit rate                                 : 35.3 kb/s
  453. Count of elements                        : 3357
  454. Stream size                              : 33.6 MiB (0%)
  455. Title                                    : Portuguese-PGS
  456. Language                                 : Portuguese
  457. Default                                  : No
  458. Forced                                   : No
  459. Original source medium                   : Blu-ray

  460. Text #24
  461. ID                                       : 28
  462. ID in the original source medium         : 4788 (0x12B4)
  463. Format                                   : PGS
  464. Muxing mode                              : zlib
  465. Codec ID                                 : S_HDMV/PGS
  466. Codec ID/Info                            : Picture based subtitle format used on BDs/HD-DVDs
  467. Duration                                 : 2 h 0 min
  468. Bit rate                                 : 100 b/s
  469. Count of elements                        : 12
  470. Stream size                              : 88.7 KiB (0%)
  471. Title                                    : Portuguese-PGS
  472. Language                                 : Portuguese
  473. Default                                  : No
  474. Forced                                   : No
  475. Original source medium                   : Blu-ray

  476. Text #25
  477. ID                                       : 29
  478. ID in the original source medium         : 4789 (0x12B5)
  479. Format                                   : PGS
  480. Muxing mode                              : zlib
  481. Codec ID                                 : S_HDMV/PGS
  482. Codec ID/Info                            : Picture based subtitle format used on BDs/HD-DVDs
  483. Duration                                 : 2 h 12 min
  484. Bit rate                                 : 32.6 kb/s
  485. Count of elements                        : 2986
  486. Stream size                              : 31.0 MiB (0%)
  487. Title                                    : Portuguese-PGS
  488. Language                                 : Portuguese
  489. Default                                  : No
  490. Forced                                   : No
  491. Original source medium                   : Blu-ray

  492. Text #26
  493. ID                                       : 30
  494. ID in the original source medium         : 4790 (0x12B6)
  495. Format                                   : PGS
  496. Muxing mode                              : zlib
  497. Codec ID                                 : S_HDMV/PGS
  498. Codec ID/Info                            : Picture based subtitle format used on BDs/HD-DVDs
  499. Duration                                 : 2 h 12 min
  500. Bit rate                                 : 34.2 kb/s
  501. Count of elements                        : 2991
  502. Stream size                              : 32.5 MiB (0%)
  503. Title                                    : Romanian-PGS
  504. Language                                 : Romanian
  505. Default                                  : No
  506. Forced                                   : No
  507. Original source medium                   : Blu-ray

  508. Text #27
  509. ID                                       : 31
  510. ID in the original source medium         : 4791 (0x12B7)
  511. Format                                   : PGS
  512. Muxing mode                              : zlib
  513. Codec ID                                 : S_HDMV/PGS
  514. Codec ID/Info                            : Picture based subtitle format used on BDs/HD-DVDs
  515. Duration                                 : 2 h 12 min
  516. Bit rate                                 : 37.2 kb/s
  517. Count of elements                        : 3307
  518. Stream size                              : 35.4 MiB (0%)
  519. Title                                    : Russian-PGS
  520. Language                                 : Russian
  521. Default                                  : No
  522. Forced                                   : No
  523. Original source medium                   : Blu-ray

  524. Text #28
  525. ID                                       : 32
  526. ID in the original source medium         : 4792 (0x12B8)
  527. Format                                   : PGS
  528. Muxing mode                              : zlib
  529. Codec ID                                 : S_HDMV/PGS
  530. Codec ID/Info                            : Picture based subtitle format used on BDs/HD-DVDs
  531. Duration                                 : 2 h 12 min
  532. Bit rate                                 : 44.0 kb/s
  533. Count of elements                        : 4481
  534. Stream size                              : 41.9 MiB (0%)
  535. Title                                    : Slovak-PGS
  536. Language                                 : Slovak
  537. Default                                  : No
  538. Forced                                   : No
  539. Original source medium                   : Blu-ray

  540. Text #29
  541. ID                                       : 33
  542. ID in the original source medium         : 4793 (0x12B9)
  543. Format                                   : PGS
  544. Muxing mode                              : zlib
  545. Codec ID                                 : S_HDMV/PGS
  546. Codec ID/Info                            : Picture based subtitle format used on BDs/HD-DVDs
  547. Duration                                 : 2 h 12 min
  548. Bit rate                                 : 28.1 kb/s
  549. Count of elements                        : 2975
  550. Stream size                              : 26.7 MiB (0%)
  551. Title                                    : Slovenian-PGS
  552. Language                                 : Slovenian
  553. Default                                  : No
  554. Forced                                   : No
  555. Original source medium                   : Blu-ray

  556. Text #30
  557. ID                                       : 34
  558. ID in the original source medium         : 4794 (0x12BA)
  559. Format                                   : PGS
  560. Muxing mode                              : zlib
  561. Codec ID                                 : S_HDMV/PGS
  562. Codec ID/Info                            : Picture based subtitle format used on BDs/HD-DVDs
  563. Duration                                 : 2 h 12 min
  564. Bit rate                                 : 30.4 kb/s
  565. Count of elements                        : 2972
  566. Stream size                              : 28.9 MiB (0%)
  567. Title                                    : Spanish-PGS
  568. Language                                 : Spanish
  569. Default                                  : No
  570. Forced                                   : No
  571. Original source medium                   : Blu-ray

  572. Text #31
  573. ID                                       : 35
  574. ID in the original source medium         : 4794 (0x12BA)
  575. Format                                   : PGS
  576. Muxing mode                              : zlib
  577. Codec ID                                 : S_HDMV/PGS
  578. Codec ID/Info                            : Picture based subtitle format used on BDs/HD-DVDs
  579. Duration                                 : 2 h 0 min
  580. Bit rate                                 : 26 b/s
  581. Count of elements                        : 4
  582. Stream size                              : 23.0 KiB (0%)
  583. Title                                    : Spanish-PGS
  584. Language                                 : Spanish
  585. Default                                  : No
  586. Forced                                   : No
  587. Original source medium                   : Blu-ray

  588. Text #32
  589. ID                                       : 36
  590. ID in the original source medium         : 4795 (0x12BB)
  591. Format                                   : PGS
  592. Muxing mode                              : zlib
  593. Codec ID                                 : S_HDMV/PGS
  594. Codec ID/Info                            : Picture based subtitle format used on BDs/HD-DVDs
  595. Duration                                 : 2 h 12 min
  596. Bit rate                                 : 36.6 kb/s
  597. Count of elements                        : 4123
  598. Stream size                              : 34.8 MiB (0%)
  599. Title                                    : Spanish-PGS
  600. Language                                 : Spanish
  601. Default                                  : No
  602. Forced                                   : No
  603. Original source medium                   : Blu-ray

  604. Text #33
  605. ID                                       : 37
  606. ID in the original source medium         : 4795 (0x12BB)
  607. Format                                   : PGS
  608. Muxing mode                              : zlib
  609. Codec ID                                 : S_HDMV/PGS
  610. Codec ID/Info                            : Picture based subtitle format used on BDs/HD-DVDs
  611. Duration                                 : 2 h 0 min
  612. Bit rate                                 : 155 b/s
  613. Count of elements                        : 18
  614. Stream size                              : 137 KiB (0%)
  615. Title                                    : Spanish-PGS
  616. Language                                 : Spanish
  617. Default                                  : No
  618. Forced                                   : No
  619. Original source medium                   : Blu-ray

  620. Text #34
  621. ID                                       : 38
  622. ID in the original source medium         : 4796 (0x12BC)
  623. Format                                   : PGS
  624. Muxing mode                              : zlib
  625. Codec ID                                 : S_HDMV/PGS
  626. Codec ID/Info                            : Picture based subtitle format used on BDs/HD-DVDs
  627. Duration                                 : 2 h 12 min
  628. Bit rate                                 : 24.2 kb/s
  629. Count of elements                        : 2309
  630. Stream size                              : 23.0 MiB (0%)
  631. Title                                    : Swedish-PGS
  632. Language                                 : Swedish
  633. Default                                  : No
  634. Forced                                   : No
  635. Original source medium                   : Blu-ray

  636. Text #35
  637. ID                                       : 39
  638. ID in the original source medium         : 4797 (0x12BD)
  639. Format                                   : PGS
  640. Muxing mode                              : zlib
  641. Codec ID                                 : S_HDMV/PGS
  642. Codec ID/Info                            : Picture based subtitle format used on BDs/HD-DVDs
  643. Duration                                 : 2 h 12 min
  644. Bit rate                                 : 35.4 kb/s
  645. Count of elements                        : 3521
  646. Stream size                              : 33.7 MiB (0%)
  647. Title                                    : Thai-PGS
  648. Language                                 : Thai
  649. Default                                  : No
  650. Forced                                   : No
  651. Original source medium                   : Blu-ray

  652. Text #36
  653. ID                                       : 40
  654. ID in the original source medium         : 4798 (0x12BE)
  655. Format                                   : PGS
  656. Muxing mode                              : zlib
  657. Codec ID                                 : S_HDMV/PGS
  658. Codec ID/Info                            : Picture based subtitle format used on BDs/HD-DVDs
  659. Duration                                 : 2 h 12 min
  660. Bit rate                                 : 34.1 kb/s
  661. Count of elements                        : 2972
  662. Stream size                              : 32.4 MiB (0%)
  663. Title                                    : Turkish-PGS
  664. Language                                 : Turkish
  665. Default                                  : No
  666. Forced                                   : No
  667. Original source medium                   : Blu-ray

  668. Menu
  669. 00:00:00.000                             : en:Chapter 01
  670. 00:12:44.805                             : en:Chapter 02
  671. 00:20:46.203                             : en:Chapter 03
  672. 00:29:14.335                             : en:Chapter 04
  673. 00:36:32.523                             : en:Chapter 05
  674. 00:44:46.141                             : en:Chapter 06
  675. 00:59:38.283                             : en:Chapter 07
  676. 01:06:39.870                             : en:Chapter 08
  677. 01:18:15.482                             : en:Chapter 09
  678. 01:28:05.530                             : en:Chapter 10
  679. 01:34:01.427                             : en:Chapter 11
  680. 01:37:51.156                             : en:Chapter 12
  681. 01:45:43.337                             : en:Chapter 13
  682. 01:55:45.939                             : en:Chapter 14
  683. 02:01:03.798                             : en:Chapter 15
  684. 02:10:15.307                             : en:Chapter 16
复制代码







回复

使用道具 举报

发表于 2020-7-25 20:04:21 | 显示全部楼层
楼主发贴辛苦了,谢谢楼主分享!我觉得蓝光电影网是注册对了!
回复 支持 反对

使用道具 举报

懒得打字嘛,点击右侧快捷回复 【右侧内容,后台自定义】
您需要登录后才可以回帖 登录 | 立即加入

本版积分规则

现在加入蓝光电影网,注册一个账号
上个主题 下个主题 快速回复 收藏帖子 返回列表 客服中心 搜索

手机版|小黑屋| 蓝光电影网 |网站地图 

Copyright © 2015-2019 Comsenz Inc.  Template by 蓝光电影论坛 All Rights Reserved.

Powered by 蓝光电影网 X3.4

特别声明:本站所有资源均由网上收集而来,版权归原影音公司所有,如果侵犯了你的权益,请通知我们,我们会及时删除侵权内容.

快速回复 返回顶部 返回列表