找回密码

蓝光电影网

查看: 108|回复: 1

[10bit.SDR] 甜心先生 Jerry.Maguire.1996.2160p.BluRay.x265.10bit.SDR.DTS-HD.MA.TrueHD.7.1.Atmos-SWTYBLZ 66.29GB

[复制链接]

 成长值: 15345

发表于 2020-7-22 18:12:53 | 显示全部楼层 |阅读模式
甜心先生 Jerry.Maguire.1996.2160p.BluRay.x265.10bit.SDR.DTS-HD.MA.TrueHD.7.1.Atmos-SWTYBLZ 66.29GB-1.jpeg

◎译  名 甜心先生 / Jerry Maguire - Spiel des Lebens / 征服情海(台) / 杰里·马奎尔
◎片  名 Jerry Maguire
◎年  代 1996
◎产  地 美国
◎类  别 剧情 / 喜剧 / 爱情 / 运动
◎语  言 英语 / 美国手语
◎上映日期 1996-12-13(美国)
◎IMDb评分  7.3/10 from 234886 users
◎IMDb链接  https://www.imdb.com/title/tt0116695
◎豆瓣评分 7.4/10 from 33252 users
◎豆瓣链接 https://movie.douban.com/subject/1293158/
◎片  长 139分钟
◎导  演 卡梅伦·克罗 Cameron Crowe
◎编  剧 卡梅伦·克罗 Cameron Crowe
◎主  演 汤姆·克鲁斯 Tom Cruise
       小库珀·古丁 Cuba Gooding Jr.
       蕾妮·齐薇格 Renée Zellweger
       凯利·普雷斯顿 Kelly Preston
       杰瑞·奥康奈尔 Jerry O'Connell
       杰·摩尔 Jay Mohr
       邦尼·亨特 Bonnie Hunt
       雷吉娜·金 Regina King
       乔纳森·利普尼基 Jonathan Lipnicki
       托德·路易斯 Todd Louiso
       马克·佩灵顿 Mark Pellington
       杰里米·苏莱泽 Jeremy Suarez
       Jann Wenner
       Nada Despotovich
       亚利桑德拉·温特沃斯 Alexandra Wentworth
       Aries Spears
       温妮·霍尔兹曼 Winnie Holzman
       苏珊·诺弗利特 Susan Norfleet
       海登·瓦尔希 Hynden Walch
       格伦·弗雷 Glenn Frey
       唐纳尔·罗格 Donal Logue
       汤姆·加洛普 Tom Gallop
       安吉拉·戈塔尔斯 Angela Goethals
       Rick Johnson
       Lightfield Lewis
       Jerry Cantrell
       托比·胡斯 Toby Huss
       德雷克·贝尔 Drake Bell
       克里斯汀·凯文诺 Christine Cavanaugh
       Russel Lunday
       埃里克·斯托尔兹 Eric Stoltz
       拉蒙·约翰逊j Lamont Johnson
       Brent Barry
       西奥·格林利 Theo Greenly
       Jordan Ross
       Thomas J. Reilly
       Reagan Gomez-Preston
       Klair Bybee
       刘玉玲 Lucy Liu
       Justina Vail
       萨曼塔·史密斯 Samantha Smith
       伊万娜·米利塞维奇 Ivana Milicevic
       丽萨·罗唐迪 Lisa Rotondi
       Lisa Stahl
       艾米丽·普格特 Emily Procter
       Stacey Williams
       Lisa Ann Hadley
       艾丽森·阿米塔奇 Alison Armitage
       丽贝卡·里格 Rebecca Rigg
       Roy Firestone
       Al Michaels
       Dan Dierdorf
       Frank Gifford
       梅尔·基佩尔 Mel Kiper
       Jeffrey Lurie
       Drew Rosenhaus
       Richie Kotite
       Tim McDonald
       Mike Tirico
       Wayne Fontes
       Mike White

◎标  签 美国 | 爱情 | 励志 | TomCruise | 美国电影 | 剧情 | 1996 | RenéeZellweger
◎简  介

  
  杰里(汤姆·克鲁斯 Tom Cruise饰)待人和善,仪表不凡,是个出色的体育界经纪人。也许连天都妒嫉这个完美的男人,决定给他一个打击,杰里因为一篇流畅出色的发言稿而招来上司不满,导致被炒鱿鱼。漂亮女友离他而去,职业前景也陷入一片迷茫,从巅峰跌入谷底的杰克在临走前奋起疾呼,动员同事们跟他离开公司一起创业。结果,杰克只带走了一条鱼,还有愿意和他干一番事业的会计多萝西(芮妮·齐薇格 Renée Zellweger饰)。
  现在,杰克的客户只剩下一名二流的黑人橄榄球员罗德(小库珀·古丁 Cuba Gooding Jr饰)。万事开头难,杰克和多萝西还没有完全搞清楚要如何开始创业生涯。看来,要想迎来事业的第二春,杰克还要狠狠摸爬滚打一番;也正是在逆境中,他得以实践自己的职业信念,并寻获一生中的最爱。
◎获奖情况  
  第69届奥斯卡金像奖(1997)
  最佳影片(提名) Richard Sakai / 卡梅伦·克罗 / 詹姆斯·L·布鲁克斯 / 劳伦斯·马克
  最佳男主角(提名) 汤姆·克鲁斯
  最佳男配角 小库珀·古丁
  最佳原创剧本(提名) 卡梅伦·克罗
  最佳剪辑(提名) 乔·哈欣
  第22届报知映画赏(1997)
  海外作品奖 卡梅伦·克罗
  1. Video
  2. ID                                       : 1
  3. Format                                   : HEVC
  4. Format/Info                              : High Efficiency Video Coding
  5. Format profile                           : Main High@L4.1@High
  6. Codec ID                                 : V_MPEGH/ISO/HEVC
  7. Duration                                 : 2 h 18 min
  8. Bit rate                                 : 59.7 Mb/s
  9. Width                                    : 3 840 pixels
  10. Height                                   : 2 076 pixels
  11. Display aspect ratio                     : 1.85:1
  12. Frame rate mode                          : Constant
  13. Frame rate                               : 23.976 (24000/1001/189150) FPS
  14. Color space                              : YUV
  15. Chroma subsampling                       : 4:2:0
  16. Bit depth                                : 10 bits
  17. Bits/(Pixel*Frame)                       : 0.312
  18. Stream size                              : 57.8 GiB (88%)
  19. Title                                    : Jerry.Maguire.1996.2160p.BluRay.x265.10bit.SDR.DTS-HD.MA.TrueHD.7.1.Atmos-SWTYBLZ
  20. Writing library                          : x265 3.0ed72af837053:[Windows][GCC 8.2.0][64 bit] 10bit
  21. Encoding settings                        : cpuid=1111039 / frame-threads=6 / numa-pools=40 / wpp / no-pmode / no-pme / no-psnr / no-ssim / log-level=2 / input-csp=1 / input-res=3840x2076 / interlace=0 / total-frames=199344 / level-idc=51 / high-tier=1 / uhd-bd=0 / ref=3 / no-allow-non-conformance / repeat-headers / annexb / aud / hrd / info / hash=0 / no-temporal-layers / no-open-gop / min-keyint=1 / keyint=24 / gop-lookahead=0 / bframes=4 / b-adapt=2 / b-pyramid / bframe-bias=0 / rc-lookahead=25 / lookahead-slices=4 / scenecut=40 / radl=0 / no-splice / no-intra-refresh / ctu=64 / min-cu-size=8 / no-rect / no-amp / max-tu-size=32 / tu-inter-depth=1 / tu-intra-depth=1 / limit-tu=0 / rdoq-level=0 / dynamic-rd=0.00 / no-ssim-rd / signhide / no-tskip / nr-intra=0 / nr-inter=0 / no-constrained-intra / strong-intra-smoothing / max-merge=2 / limit-refs=3 / no-limit-modes / me=1 / subme=2 / merange=57 / temporal-mvp / weightp / no-weightb / no-analyze-src-pics / deblock=0:0 / no-sao / no-sao-non-deblock / rd=3 / no-early-skip / rskip / no-fast-intra / no-tskip-fast / no-cu-lossless / no-b-intra / no-splitrd-skip / rdpenalty=0 / psy-rd=2.00 / psy-rdoq=0.00 / no-rd-refine / no-lossless / cbqpoffs=0 / crqpoffs=0 / rc=crf / crf=20.0 / qcomp=0.60 / qpstep=4 / stats-write=0 / stats-read=0 / vbv-maxrate=160000 / vbv-bufsize=160000 / vbv-init=0.9 / crf-max=0.0 / crf-min=0.0 / ipratio=1.40 / pbratio=1.30 / aq-mode=1 / aq-strength=1.00 / cutree / zone-count=0 / no-strict-cbr / qg-size=32 / no-rc-grain / qpmax=69 / qpmin=0 / no-const-vbv / sar=1 / overscan=0 / videoformat=5 / range=0 / colorprim=2 / transfer=2 / colormatrix=2 / chromaloc=0 / display-window=0 / max-cll=0,0 / min-luma=0 / max-luma=1023 / log2-max-poc-lsb=8 / vui-timing-info / vui-hrd-info / slices=1 / opt-qp-pps / opt-ref-list-length-pps / no-multi-pass-opt-rps / scenecut-bias=0.05 / no-opt-cu-delta-qp / no-aq-motion / no-hdr / no-hdr-opt / no-dhdr10-opt / no-idr-recovery-sei / analysis-reuse-level=5 / scale-factor=0 / refine-intra=0 / refine-inter=0 / refine-mv=0 / refine-ctu-distortion=0 / no-limit-sao / ctu-info=0 / no-lowpass-dct / refine-analysis-type=0 / copy-pic=1 / max-ausize-factor=1.0 / no-dynamic-refine / no-single-sei / no-hevc-aq / qp-adaptation-range=1.00
  22. Default                                  : Yes
  23. Forced                                   : No

  24. Audio #1
  25. ID                                       : 2
  26. ID in the original source medium         : 4352 (0x1100)
  27. Format                                   : MLP FBA 16-ch
  28. Format/Info                              : Meridian Lossless Packing FBA with 16-channel presentation
  29. Commercial name                          : Dolby TrueHD with Dolby Atmos
  30. Codec ID                                 : A_TRUEHD
  31. Duration                                 : 2 h 18 min
  32. Bit rate mode                            : Variable
  33. Bit rate                                 : 3 394 kb/s
  34. Maximum bit rate                         : 4 878 kb/s
  35. Channel(s)                               : 8 channels
  36. Channel layout                           : L R C LFE Ls Rs Lb Rb
  37. Sampling rate                            : 48.0 kHz
  38. Frame rate                               : 1 200.000 FPS (40 SPF)
  39. Compression mode                         : Lossless
  40. Stream size                              : 3.28 GiB (5%)
  41. Title                                    : Jerry.Maguire.1996.2160p.BluRay.x265.10bit.SDR.DTS-HD.MA.TrueHD.7.1.Atmos-SWTYBLZ
  42. Language                                 : English
  43. Default                                  : Yes
  44. Forced                                   : No
  45. Original source medium                   : Blu-ray
  46. Number of dynamic objects                : 11
  47. Bed channel count                        : 1 channel
  48. Bed channel configuration                : LFE

  49. Audio #2
  50. ID                                       : 3
  51. Format                                   : DTS XLL
  52. Format/Info                              : Digital Theater Systems
  53. Commercial name                          : DTS-HD Master Audio
  54. Codec ID                                 : A_DTS
  55. Duration                                 : 2 h 18 min
  56. Bit rate mode                            : Variable
  57. Bit rate                                 : 3 964 kb/s
  58. Channel(s)                               : 8 channels
  59. Channel layout                           : C L R LFE Lb Rb Lss Rss
  60. Sampling rate                            : 48.0 kHz
  61. Frame rate                               : 93.750 FPS (512 SPF)
  62. Bit depth                                : 24 bits
  63. Compression mode                         : Lossless
  64. Stream size                              : 3.84 GiB (6%)
  65. Title                                    : Jerry.Maguire.1996.2160p.BluRay.x265.10bit.SDR.DTS-HD.MA.TrueHD.7.1.Atmos-SWTYBLZ
  66. Language                                 : English
  67. Default                                  : No
  68. Forced                                   : No

  69. Audio #3
  70. ID                                       : 4
  71. ID in the original source medium         : 4352 (0x1100)
  72. Format                                   : AC-3
  73. Format/Info                              : Audio Coding 3
  74. Commercial name                          : Dolby Digital
  75. Codec ID                                 : A_AC3
  76. Duration                                 : 2 h 18 min
  77. Bit rate mode                            : Constant
  78. Bit rate                                 : 640 kb/s
  79. Channel(s)                               : 6 channels
  80. Channel layout                           : L R C LFE Ls Rs
  81. Sampling rate                            : 48.0 kHz
  82. Frame rate                               : 31.250 FPS (1536 SPF)
  83. Compression mode                         : Lossy
  84. Stream size                              : 634 MiB (1%)
  85. Title                                    : Jerry.Maguire.1996.2160p.BluRay.x265.10bit.SDR.DTS-HD.MA.TrueHD.7.1.Atmos-SWTYBLZ
  86. Language                                 : English
  87. Service kind                             : Complete Main
  88. Default                                  : No
  89. Forced                                   : No
  90. Original source medium                   : Blu-ray

  91. Text #1
  92. ID                                       : 5
  93. Format                                   : UTF-8
  94. Codec ID                                 : S_TEXT/UTF8
  95. Codec ID/Info                            : UTF-8 Plain Text
  96. Duration                                 : 2 h 12 min
  97. Bit rate                                 : 70 b/s
  98. Count of elements                        : 1762
  99. Stream size                              : 68.4 KiB (0%)
  100. Title                                    : English-SRT
  101. Language                                 : English
  102. Default                                  : Yes
  103. Forced                                   : No

  104. Text #2
  105. ID                                       : 6
  106. ID in the original source medium         : 4768 (0x12A0)
  107. Format                                   : PGS
  108. Muxing mode                              : zlib
  109. Codec ID                                 : S_HDMV/PGS
  110. Codec ID/Info                            : Picture based subtitle format used on BDs/HD-DVDs
  111. Duration                                 : 2 h 17 min
  112. Bit rate                                 : 44.4 kb/s
  113. Count of elements                        : 4123
  114. Stream size                              : 43.7 MiB (0%)
  115. Title                                    : English-SDH-PGS
  116. Language                                 : English
  117. Default                                  : No
  118. Forced                                   : No
  119. Original source medium                   : Blu-ray

  120. Text #3
  121. ID                                       : 7
  122. ID in the original source medium         : 4769 (0x12A1)
  123. Format                                   : PGS
  124. Muxing mode                              : zlib
  125. Codec ID                                 : S_HDMV/PGS
  126. Codec ID/Info                            : Picture based subtitle format used on BDs/HD-DVDs
  127. Duration                                 : 2 h 12 min
  128. Bit rate                                 : 40.6 kb/s
  129. Count of elements                        : 3539
  130. Stream size                              : 38.6 MiB (0%)
  131. Title                                    : English-PGS
  132. Language                                 : English
  133. Default                                  : No
  134. Forced                                   : No
  135. Original source medium                   : Blu-ray

  136. Text #4
  137. ID                                       : 8
  138. ID in the original source medium         : 4770 (0x12A2)
  139. Format                                   : PGS
  140. Muxing mode                              : zlib
  141. Codec ID                                 : S_HDMV/PGS
  142. Codec ID/Info                            : Picture based subtitle format used on BDs/HD-DVDs
  143. Duration                                 : 2 h 17 min
  144. Bit rate                                 : 44.4 kb/s
  145. Count of elements                        : 4167
  146. Stream size                              : 43.8 MiB (0%)
  147. Title                                    : English-SDH-PGS
  148. Language                                 : English
  149. Default                                  : No
  150. Forced                                   : No
  151. Original source medium                   : Blu-ray

  152. Text #5
  153. ID                                       : 9
  154. ID in the original source medium         : 4771 (0x12A3)
  155. Format                                   : PGS
  156. Muxing mode                              : zlib
  157. Codec ID                                 : S_HDMV/PGS
  158. Codec ID/Info                            : Picture based subtitle format used on BDs/HD-DVDs
  159. Duration                                 : 2 h 12 min
  160. Bit rate                                 : 33.0 kb/s
  161. Count of elements                        : 3031
  162. Stream size                              : 31.3 MiB (0%)
  163. Title                                    : English-PGS
  164. Language                                 : English
  165. Default                                  : No
  166. Forced                                   : No
  167. Original source medium                   : Blu-ray

  168. Text #6
  169. ID                                       : 10
  170. ID in the original source medium         : 4772 (0x12A4)
  171. Format                                   : PGS
  172. Muxing mode                              : zlib
  173. Codec ID                                 : S_HDMV/PGS
  174. Codec ID/Info                            : Picture based subtitle format used on BDs/HD-DVDs
  175. Duration                                 : 2 h 12 min
  176. Bit rate                                 : 18.9 kb/s
  177. Count of elements                        : 2988
  178. Stream size                              : 18.0 MiB (0%)
  179. Title                                    : Arabic-PGS
  180. Language                                 : Arabic
  181. Default                                  : No
  182. Forced                                   : No
  183. Original source medium                   : Blu-ray

  184. Text #7
  185. ID                                       : 11
  186. ID in the original source medium         : 4773 (0x12A5)
  187. Format                                   : PGS
  188. Muxing mode                              : zlib
  189. Codec ID                                 : S_HDMV/PGS
  190. Codec ID/Info                            : Picture based subtitle format used on BDs/HD-DVDs
  191. Duration                                 : 2 h 12 min
  192. Bit rate                                 : 36.0 kb/s
  193. Count of elements                        : 4244
  194. Stream size                              : 34.2 MiB (0%)
  195. Title                                    : Chinese-PGS
  196. Language                                 : Chinese
  197. Default                                  : No
  198. Forced                                   : No
  199. Original source medium                   : Blu-ray

  200. Text #8
  201. ID                                       : 12
  202. ID in the original source medium         : 4773 (0x12A5)
  203. Format                                   : PGS
  204. Muxing mode                              : zlib
  205. Codec ID                                 : S_HDMV/PGS
  206. Codec ID/Info                            : Picture based subtitle format used on BDs/HD-DVDs
  207. Duration                                 : 2 h 2 min
  208. Bit rate                                 : 613 b/s
  209. Count of elements                        : 66
  210. Stream size                              : 552 KiB (0%)
  211. Title                                    : Chinese-PGS
  212. Language                                 : Chinese
  213. Default                                  : No
  214. Forced                                   : No
  215. Original source medium                   : Blu-ray

  216. Text #9
  217. ID                                       : 13
  218. ID in the original source medium         : 4774 (0x12A6)
  219. Format                                   : PGS
  220. Muxing mode                              : zlib
  221. Codec ID                                 : S_HDMV/PGS
  222. Codec ID/Info                            : Picture based subtitle format used on BDs/HD-DVDs
  223. Duration                                 : 2 h 12 min
  224. Bit rate                                 : 28.8 kb/s
  225. Count of elements                        : 3154
  226. Stream size                              : 27.3 MiB (0%)
  227. Title                                    : Chinese-PGS
  228. Language                                 : Chinese
  229. Default                                  : No
  230. Forced                                   : No
  231. Original source medium                   : Blu-ray

  232. Text #10
  233. ID                                       : 14
  234. ID in the original source medium         : 4775 (0x12A7)
  235. Format                                   : PGS
  236. Muxing mode                              : zlib
  237. Codec ID                                 : S_HDMV/PGS
  238. Codec ID/Info                            : Picture based subtitle format used on BDs/HD-DVDs
  239. Duration                                 : 2 h 12 min
  240. Bit rate                                 : 30.9 kb/s
  241. Count of elements                        : 2976
  242. Stream size                              : 29.4 MiB (0%)
  243. Title                                    : Croatian-PGS
  244. Language                                 : Croatian
  245. Default                                  : No
  246. Forced                                   : No
  247. Original source medium                   : Blu-ray

  248. Text #11
  249. ID                                       : 15
  250. ID in the original source medium         : 4776 (0x12A8)
  251. Format                                   : PGS
  252. Muxing mode                              : zlib
  253. Codec ID                                 : S_HDMV/PGS
  254. Codec ID/Info                            : Picture based subtitle format used on BDs/HD-DVDs
  255. Duration                                 : 2 h 12 min
  256. Bit rate                                 : 29.0 kb/s
  257. Count of elements                        : 2992
  258. Stream size                              : 27.5 MiB (0%)
  259. Title                                    : Czech-PGS
  260. Language                                 : Czech
  261. Default                                  : No
  262. Forced                                   : No
  263. Original source medium                   : Blu-ray

  264. Text #12
  265. ID                                       : 16
  266. ID in the original source medium         : 4777 (0x12A9)
  267. Format                                   : PGS
  268. Muxing mode                              : zlib
  269. Codec ID                                 : S_HDMV/PGS
  270. Codec ID/Info                            : Picture based subtitle format used on BDs/HD-DVDs
  271. Duration                                 : 2 h 17 min
  272. Bit rate                                 : 27.4 kb/s
  273. Count of elements                        : 2476
  274. Stream size                              : 27.0 MiB (0%)
  275. Title                                    : Danish-PGS
  276. Language                                 : Danish
  277. Default                                  : No
  278. Forced                                   : No
  279. Original source medium                   : Blu-ray

  280. Text #13
  281. ID                                       : 17
  282. ID in the original source medium         : 4778 (0x12AA)
  283. Format                                   : PGS
  284. Muxing mode                              : zlib
  285. Codec ID                                 : S_HDMV/PGS
  286. Codec ID/Info                            : Picture based subtitle format used on BDs/HD-DVDs
  287. Duration                                 : 2 h 12 min
  288. Bit rate                                 : 29.2 kb/s
  289. Count of elements                        : 3030
  290. Stream size                              : 27.8 MiB (0%)
  291. Title                                    : Dutch-PGS
  292. Language                                 : Dutch
  293. Default                                  : No
  294. Forced                                   : No
  295. Original source medium                   : Blu-ray

  296. Text #14
  297. ID                                       : 18
  298. ID in the original source medium         : 4779 (0x12AB)
  299. Format                                   : PGS
  300. Muxing mode                              : zlib
  301. Codec ID                                 : S_HDMV/PGS
  302. Codec ID/Info                            : Picture based subtitle format used on BDs/HD-DVDs
  303. Duration                                 : 2 h 12 min
  304. Bit rate                                 : 28.2 kb/s
  305. Count of elements                        : 2509
  306. Stream size                              : 26.8 MiB (0%)
  307. Title                                    : Finnish-PGS
  308. Language                                 : Finnish
  309. Default                                  : No
  310. Forced                                   : No
  311. Original source medium                   : Blu-ray

  312. Text #15
  313. ID                                       : 19
  314. ID in the original source medium         : 4780 (0x12AC)
  315. Format                                   : PGS
  316. Muxing mode                              : zlib
  317. Codec ID                                 : S_HDMV/PGS
  318. Codec ID/Info                            : Picture based subtitle format used on BDs/HD-DVDs
  319. Duration                                 : 2 h 17 min
  320. Bit rate                                 : 31.2 kb/s
  321. Count of elements                        : 3034
  322. Stream size                              : 30.8 MiB (0%)
  323. Title                                    : French-PGS
  324. Language                                 : French
  325. Default                                  : No
  326. Forced                                   : No
  327. Original source medium                   : Blu-ray

  328. Text #16
  329. ID                                       : 20
  330. ID in the original source medium         : 4781 (0x12AD)
  331. Format                                   : PGS
  332. Muxing mode                              : zlib
  333. Codec ID                                 : S_HDMV/PGS
  334. Codec ID/Info                            : Picture based subtitle format used on BDs/HD-DVDs
  335. Duration                                 : 2 h 12 min
  336. Bit rate                                 : 38.8 kb/s
  337. Count of elements                        : 3194
  338. Stream size                              : 36.9 MiB (0%)
  339. Title                                    : German-PGS
  340. Language                                 : German
  341. Default                                  : No
  342. Forced                                   : No
  343. Original source medium                   : Blu-ray

  344. Text #17
  345. ID                                       : 21
  346. ID in the original source medium         : 4782 (0x12AE)
  347. Format                                   : PGS
  348. Muxing mode                              : zlib
  349. Codec ID                                 : S_HDMV/PGS
  350. Codec ID/Info                            : Picture based subtitle format used on BDs/HD-DVDs
  351. Duration                                 : 2 h 12 min
  352. Bit rate                                 : 30.7 kb/s
  353. Count of elements                        : 3009
  354. Stream size                              : 29.2 MiB (0%)
  355. Title                                    : Greek-PGS
  356. Language                                 : Greek
  357. Default                                  : No
  358. Forced                                   : No
  359. Original source medium                   : Blu-ray

  360. Text #18
  361. ID                                       : 22
  362. ID in the original source medium         : 4783 (0x12AF)
  363. Format                                   : PGS
  364. Muxing mode                              : zlib
  365. Codec ID                                 : S_HDMV/PGS
  366. Codec ID/Info                            : Picture based subtitle format used on BDs/HD-DVDs
  367. Duration                                 : 2 h 12 min
  368. Bit rate                                 : 30.8 kb/s
  369. Count of elements                        : 2987
  370. Stream size                              : 29.3 MiB (0%)
  371. Title                                    : Hungarian-PGS
  372. Language                                 : Hungarian
  373. Default                                  : No
  374. Forced                                   : No
  375. Original source medium                   : Blu-ray

  376. Text #19
  377. ID                                       : 23
  378. ID in the original source medium         : 4784 (0x12B0)
  379. Format                                   : PGS
  380. Muxing mode                              : zlib
  381. Codec ID                                 : S_HDMV/PGS
  382. Codec ID/Info                            : Picture based subtitle format used on BDs/HD-DVDs
  383. Duration                                 : 2 h 12 min
  384. Bit rate                                 : 34.2 kb/s
  385. Count of elements                        : 3276
  386. Stream size                              : 32.5 MiB (0%)
  387. Title                                    : Italian-PGS
  388. Language                                 : Italian
  389. Default                                  : No
  390. Forced                                   : No
  391. Original source medium                   : Blu-ray

  392. Text #20
  393. ID                                       : 24
  394. ID in the original source medium         : 4785 (0x12B1)
  395. Format                                   : PGS
  396. Muxing mode                              : zlib
  397. Codec ID                                 : S_HDMV/PGS
  398. Codec ID/Info                            : Picture based subtitle format used on BDs/HD-DVDs
  399. Duration                                 : 2 h 12 min
  400. Bit rate                                 : 32.6 kb/s
  401. Count of elements                        : 3577
  402. Stream size                              : 31.0 MiB (0%)
  403. Title                                    : Korean-PGS
  404. Language                                 : Korean
  405. Default                                  : No
  406. Forced                                   : No
  407. Original source medium                   : Blu-ray

  408. Text #21
  409. ID                                       : 25
  410. ID in the original source medium         : 4786 (0x12B2)
  411. Format                                   : PGS
  412. Muxing mode                              : zlib
  413. Codec ID                                 : S_HDMV/PGS
  414. Codec ID/Info                            : Picture based subtitle format used on BDs/HD-DVDs
  415. Duration                                 : 2 h 12 min
  416. Bit rate                                 : 27.8 kb/s
  417. Count of elements                        : 2510
  418. Stream size                              : 26.4 MiB (0%)
  419. Title                                    : Norwegian-PGS
  420. Language                                 : Norwegian
  421. Default                                  : No
  422. Forced                                   : No
  423. Original source medium                   : Blu-ray

  424. Text #22
  425. ID                                       : 26
  426. ID in the original source medium         : 4787 (0x12B3)
  427. Format                                   : PGS
  428. Muxing mode                              : zlib
  429. Codec ID                                 : S_HDMV/PGS
  430. Codec ID/Info                            : Picture based subtitle format used on BDs/HD-DVDs
  431. Duration                                 : 2 h 12 min
  432. Bit rate                                 : 30.4 kb/s
  433. Count of elements                        : 2983
  434. Stream size                              : 28.9 MiB (0%)
  435. Title                                    : Polish-PGS
  436. Language                                 : Polish
  437. Default                                  : No
  438. Forced                                   : No
  439. Original source medium                   : Blu-ray

  440. Text #23
  441. ID                                       : 27
  442. ID in the original source medium         : 4788 (0x12B4)
  443. Format                                   : PGS
  444. Muxing mode                              : zlib
  445. Codec ID                                 : S_HDMV/PGS
  446. Codec ID/Info                            : Picture based subtitle format used on BDs/HD-DVDs
  447. Duration                                 : 2 h 12 min
  448. Bit rate                                 : 35.3 kb/s
  449. Count of elements                        : 3357
  450. Stream size                              : 33.6 MiB (0%)
  451. Title                                    : Portuguese-PGS
  452. Language                                 : Portuguese
  453. Default                                  : No
  454. Forced                                   : No
  455. Original source medium                   : Blu-ray

  456. Text #24
  457. ID                                       : 28
  458. ID in the original source medium         : 4788 (0x12B4)
  459. Format                                   : PGS
  460. Muxing mode                              : zlib
  461. Codec ID                                 : S_HDMV/PGS
  462. Codec ID/Info                            : Picture based subtitle format used on BDs/HD-DVDs
  463. Duration                                 : 2 h 0 min
  464. Bit rate                                 : 100 b/s
  465. Count of elements                        : 12
  466. Stream size                              : 88.7 KiB (0%)
  467. Title                                    : Portuguese-PGS
  468. Language                                 : Portuguese
  469. Default                                  : No
  470. Forced                                   : No
  471. Original source medium                   : Blu-ray

  472. Text #25
  473. ID                                       : 29
  474. ID in the original source medium         : 4789 (0x12B5)
  475. Format                                   : PGS
  476. Muxing mode                              : zlib
  477. Codec ID                                 : S_HDMV/PGS
  478. Codec ID/Info                            : Picture based subtitle format used on BDs/HD-DVDs
  479. Duration                                 : 2 h 12 min
  480. Bit rate                                 : 32.6 kb/s
  481. Count of elements                        : 2986
  482. Stream size                              : 31.0 MiB (0%)
  483. Title                                    : Portuguese-PGS
  484. Language                                 : Portuguese
  485. Default                                  : No
  486. Forced                                   : No
  487. Original source medium                   : Blu-ray

  488. Text #26
  489. ID                                       : 30
  490. ID in the original source medium         : 4790 (0x12B6)
  491. Format                                   : PGS
  492. Muxing mode                              : zlib
  493. Codec ID                                 : S_HDMV/PGS
  494. Codec ID/Info                            : Picture based subtitle format used on BDs/HD-DVDs
  495. Duration                                 : 2 h 12 min
  496. Bit rate                                 : 34.2 kb/s
  497. Count of elements                        : 2991
  498. Stream size                              : 32.5 MiB (0%)
  499. Title                                    : Romanian-PGS
  500. Language                                 : Romanian
  501. Default                                  : No
  502. Forced                                   : No
  503. Original source medium                   : Blu-ray

  504. Text #27
  505. ID                                       : 31
  506. ID in the original source medium         : 4791 (0x12B7)
  507. Format                                   : PGS
  508. Muxing mode                              : zlib
  509. Codec ID                                 : S_HDMV/PGS
  510. Codec ID/Info                            : Picture based subtitle format used on BDs/HD-DVDs
  511. Duration                                 : 2 h 12 min
  512. Bit rate                                 : 37.2 kb/s
  513. Count of elements                        : 3307
  514. Stream size                              : 35.4 MiB (0%)
  515. Title                                    : Russian-PGS
  516. Language                                 : Russian
  517. Default                                  : No
  518. Forced                                   : No
  519. Original source medium                   : Blu-ray

  520. Text #28
  521. ID                                       : 32
  522. ID in the original source medium         : 4792 (0x12B8)
  523. Format                                   : PGS
  524. Muxing mode                              : zlib
  525. Codec ID                                 : S_HDMV/PGS
  526. Codec ID/Info                            : Picture based subtitle format used on BDs/HD-DVDs
  527. Duration                                 : 2 h 12 min
  528. Bit rate                                 : 44.0 kb/s
  529. Count of elements                        : 4481
  530. Stream size                              : 41.9 MiB (0%)
  531. Title                                    : Slovak-PGS
  532. Language                                 : Slovak
  533. Default                                  : No
  534. Forced                                   : No
  535. Original source medium                   : Blu-ray

  536. Text #29
  537. ID                                       : 33
  538. ID in the original source medium         : 4793 (0x12B9)
  539. Format                                   : PGS
  540. Muxing mode                              : zlib
  541. Codec ID                                 : S_HDMV/PGS
  542. Codec ID/Info                            : Picture based subtitle format used on BDs/HD-DVDs
  543. Duration                                 : 2 h 12 min
  544. Bit rate                                 : 28.1 kb/s
  545. Count of elements                        : 2975
  546. Stream size                              : 26.7 MiB (0%)
  547. Title                                    : Slovenian-PGS
  548. Language                                 : Slovenian
  549. Default                                  : No
  550. Forced                                   : No
  551. Original source medium                   : Blu-ray

  552. Text #30
  553. ID                                       : 34
  554. ID in the original source medium         : 4794 (0x12BA)
  555. Format                                   : PGS
  556. Muxing mode                              : zlib
  557. Codec ID                                 : S_HDMV/PGS
  558. Codec ID/Info                            : Picture based subtitle format used on BDs/HD-DVDs
  559. Duration                                 : 2 h 12 min
  560. Bit rate                                 : 30.4 kb/s
  561. Count of elements                        : 2972
  562. Stream size                              : 28.9 MiB (0%)
  563. Title                                    : Spanish-PGS
  564. Language                                 : Spanish
  565. Default                                  : No
  566. Forced                                   : No
  567. Original source medium                   : Blu-ray

  568. Text #31
  569. ID                                       : 35
  570. ID in the original source medium         : 4794 (0x12BA)
  571. Format                                   : PGS
  572. Muxing mode                              : zlib
  573. Codec ID                                 : S_HDMV/PGS
  574. Codec ID/Info                            : Picture based subtitle format used on BDs/HD-DVDs
  575. Duration                                 : 2 h 0 min
  576. Bit rate                                 : 26 b/s
  577. Count of elements                        : 4
  578. Stream size                              : 23.0 KiB (0%)
  579. Title                                    : Spanish-PGS
  580. Language                                 : Spanish
  581. Default                                  : No
  582. Forced                                   : No
  583. Original source medium                   : Blu-ray

  584. Text #32
  585. ID                                       : 36
  586. ID in the original source medium         : 4795 (0x12BB)
  587. Format                                   : PGS
  588. Muxing mode                              : zlib
  589. Codec ID                                 : S_HDMV/PGS
  590. Codec ID/Info                            : Picture based subtitle format used on BDs/HD-DVDs
  591. Duration                                 : 2 h 12 min
  592. Bit rate                                 : 36.6 kb/s
  593. Count of elements                        : 4123
  594. Stream size                              : 34.8 MiB (0%)
  595. Title                                    : Spanish-PGS
  596. Language                                 : Spanish
  597. Default                                  : No
  598. Forced                                   : No
  599. Original source medium                   : Blu-ray

  600. Text #33
  601. ID                                       : 37
  602. ID in the original source medium         : 4795 (0x12BB)
  603. Format                                   : PGS
  604. Muxing mode                              : zlib
  605. Codec ID                                 : S_HDMV/PGS
  606. Codec ID/Info                            : Picture based subtitle format used on BDs/HD-DVDs
  607. Duration                                 : 2 h 0 min
  608. Bit rate                                 : 155 b/s
  609. Count of elements                        : 18
  610. Stream size                              : 137 KiB (0%)
  611. Title                                    : Spanish-PGS
  612. Language                                 : Spanish
  613. Default                                  : No
  614. Forced                                   : No
  615. Original source medium                   : Blu-ray

  616. Text #34
  617. ID                                       : 38
  618. ID in the original source medium         : 4796 (0x12BC)
  619. Format                                   : PGS
  620. Muxing mode                              : zlib
  621. Codec ID                                 : S_HDMV/PGS
  622. Codec ID/Info                            : Picture based subtitle format used on BDs/HD-DVDs
  623. Duration                                 : 2 h 12 min
  624. Bit rate                                 : 24.2 kb/s
  625. Count of elements                        : 2309
  626. Stream size                              : 23.0 MiB (0%)
  627. Title                                    : Swedish-PGS
  628. Language                                 : Swedish
  629. Default                                  : No
  630. Forced                                   : No
  631. Original source medium                   : Blu-ray

  632. Text #35
  633. ID                                       : 39
  634. ID in the original source medium         : 4797 (0x12BD)
  635. Format                                   : PGS
  636. Muxing mode                              : zlib
  637. Codec ID                                 : S_HDMV/PGS
  638. Codec ID/Info                            : Picture based subtitle format used on BDs/HD-DVDs
  639. Duration                                 : 2 h 12 min
  640. Bit rate                                 : 35.4 kb/s
  641. Count of elements                        : 3521
  642. Stream size                              : 33.7 MiB (0%)
  643. Title                                    : Thai-PGS
  644. Language                                 : Thai
  645. Default                                  : No
  646. Forced                                   : No
  647. Original source medium                   : Blu-ray

  648. Text #36
  649. ID                                       : 40
  650. ID in the original source medium         : 4798 (0x12BE)
  651. Format                                   : PGS
  652. Muxing mode                              : zlib
  653. Codec ID                                 : S_HDMV/PGS
  654. Codec ID/Info                            : Picture based subtitle format used on BDs/HD-DVDs
  655. Duration                                 : 2 h 12 min
  656. Bit rate                                 : 34.1 kb/s
  657. Count of elements                        : 2972
  658. Stream size                              : 32.4 MiB (0%)
  659. Title                                    : Turkish-PGS
  660. Language                                 : Turkish
  661. Default                                  : No
  662. Forced                                   : No
  663. Original source medium                   : Blu-ray

  664. Menu
  665. 00:00:00.000                             : en:Chapter 01
  666. 00:12:44.805                             : en:Chapter 02
  667. 00:20:46.203                             : en:Chapter 03
  668. 00:29:14.335                             : en:Chapter 04
  669. 00:36:32.523                             : en:Chapter 05
  670. 00:44:46.141                             : en:Chapter 06
  671. 00:59:38.283                             : en:Chapter 07
  672. 01:06:39.870                             : en:Chapter 08
  673. 01:18:15.482                             : en:Chapter 09
  674. 01:28:05.530                             : en:Chapter 10
  675. 01:34:01.427                             : en:Chapter 11
  676. 01:37:51.156                             : en:Chapter 12
  677. 01:45:43.337                             : en:Chapter 13
  678. 01:55:45.939                             : en:Chapter 14
  679. 02:01:03.798                             : en:Chapter 15
  680. 02:10:15.307                             : en:Chapter 16
复制代码







回复

使用道具 举报

发表于 2020-7-30 22:53:29 | 显示全部楼层
楼主发贴辛苦了,谢谢楼主分享!我觉得蓝光电影网是注册对了!
回复 支持 反对

使用道具 举报

懒得打字嘛,点击右侧快捷回复 【右侧内容,后台自定义】
您需要登录后才可以回帖 登录 | 立即加入

本版积分规则

现在加入蓝光电影网,注册一个账号
上个主题 下个主题 快速回复 收藏帖子 返回列表 客服中心 搜索

手机版|小黑屋| 蓝光电影网 |网站地图 

Copyright © 2015-2019 Comsenz Inc.  Template by 蓝光电影论坛 All Rights Reserved.

Powered by 蓝光电影网 X3.4

特别声明:本站所有资源均由网上收集而来,版权归原影音公司所有,如果侵犯了你的权益,请通知我们,我们会及时删除侵权内容.

快速回复 返回顶部 返回列表