找回密码

蓝光电影网

查看: 83|回复: 0

[10bit.SDR] 甘地传 Gandhi.1982.DISC1.2160p.BluRay.x265.10bit.SDR.DTS-HD.MA.TrueHD.7.1.Atmos-SWTYBLZ 47.76GB

[复制链接]

 成长值: 15345

发表于 2020-7-22 18:12:47 | 显示全部楼层 |阅读模式
甘地传 Gandhi.1982.DISC1.2160p.BluRay.x265.10bit.SDR.DTS-HD.MA.TrueHD.7.1.Atmos-SWTYBLZ 47.76GB-1.jpeg

◎译  名 甘地传 / Richard Attenborough's Film: Gandhi / 甘地
◎片  名 Gandhi
◎年  代 1982
◎产  地 英国 / 印度 / 美国
◎类  别 剧情 / 传记 / 历史
◎语  言 英语
◎上映日期 1982-12-03
◎IMDb评分  8.0/10 from 214400 users
◎IMDb链接  https://www.imdb.com/title/tt0083987
◎豆瓣评分 8.6/10 from 28728 users
◎豆瓣链接 https://movie.douban.com/subject/1292238/
◎片  长 191 分钟
◎导  演 Richard Attenborough
◎编  剧 John Briley
◎主  演 本·金斯利 Ben Kingsley
       坎迪斯·伯根 Candice Bergen
       爱德华·福克斯 Edward Fox
       约翰·吉尔古德 John Gielgud
       约翰·米尔斯 John Mills
       马丁·辛 Martin Sheen
       丹尼尔·戴-刘易斯 Daniel Day-Lewis

◎标  签 传记 | 印度 | 甘地 | 历史 | 英国 | 人物 | 经典 | 1982
◎简  介

  
  本片记录了印度圣雄甘地史诗般传奇伟大的一生。1893年,24岁的甘地(本?金斯利 Ben Kingsley 饰)受邀前往南非任律师职,决心在当地带领印度移民开展非暴力不合作的抗议活动,并因此入狱。出狱后甘地回到祖国,在三八朗地区建立了高僧修行所,加入了国大党领导的印度独立运动,宣传非暴力不合作的斗争理念。运动中甘地曾四次入狱;在其不懈努力及国大党的带领下,印度独立终于提上议事日程,甘地也于1931年赴伦敦参加商讨独立的圆桌会议。然而随着独立的临近,印度国内穆斯林与印度教人民之间的宗教矛盾日益突出,甘地的非暴力不合作理念又面临着更为严峻的新挑战……
  本片获1982年奥斯卡最佳影片,最佳导演(理查德?阿滕伯勒Richard Attenborough),最佳男演员(本?金斯利),最佳原创剧本,最佳艺术指导,最佳摄影,最佳服装设计和最佳剪辑共八项大奖,并获奥斯卡最佳化妆,最佳电影音乐和最佳音效三项提名。
◎获奖情况  
  第55届奥斯卡金像奖(1983)
  最佳影片 理查德·阿滕伯勒
  最佳导演 理查德·阿滕伯勒
  最佳男主角 本·金斯利
  最佳原创剧本 约翰·布瑞雷
  最佳摄影 罗尼·泰勒 / Billy Williams
  最佳剪辑 John Bloom
  最佳音响(提名) Robin O'Donoghue / Gerry Humphreys / Simon Kaye
  最佳艺术指导 迈克尔·塞尔顿 / Robert W. Laing / 斯图尔特·克莱格
  最佳服装设计 John Mollo / Bhanu Athaiya
  最佳化妆(提名) Tom Smith
  最佳原创配乐(提名) 拉威·香卡 / 乔治·芬顿
  1. Video
  2. ID                                       : 1
  3. Format                                   : HEVC
  4. Format/Info                              : High Efficiency Video Coding
  5. Format profile                           : Main High@L4.1@High
  6. Codec ID                                 : V_MPEGH/ISO/HEVC
  7. Duration                                 : 1 h 32 min
  8. Bit rate                                 : 65.2 Mb/s
  9. Width                                    : 3 840 pixels
  10. Height                                   : 1 606 pixels
  11. Display aspect ratio                     : 2.40:1
  12. Frame rate mode                          : Constant
  13. Frame rate                               : 23.976 (24000/1001/189150) FPS
  14. Color space                              : YUV
  15. Chroma subsampling                       : 4:2:0
  16. Bit depth                                : 10 bits
  17. Bits/(Pixel*Frame)                       : 0.441
  18. Stream size                              : 41.9 GiB (88%)
  19. Title                                    : Gandhi.1982.DISC1.2160p.BluRay.x265.10bit.SDR.DTS-HD.MA.TrueHD.7.1.Atmos-SWTYBLZ
  20. Writing library                          : x265 3.0ed72af837053:[Windows][GCC 8.2.0][64 bit] 10bit
  21. Encoding settings                        : cpuid=1111039 / frame-threads=6 / numa-pools=40 / wpp / no-pmode / no-pme / no-psnr / no-ssim / log-level=2 / input-csp=1 / input-res=3840x1606 / interlace=0 / total-frames=132356 / level-idc=51 / high-tier=1 / uhd-bd=0 / ref=3 / no-allow-non-conformance / repeat-headers / annexb / aud / hrd / info / hash=0 / no-temporal-layers / no-open-gop / min-keyint=1 / keyint=24 / gop-lookahead=0 / bframes=4 / b-adapt=2 / b-pyramid / bframe-bias=0 / rc-lookahead=25 / lookahead-slices=4 / scenecut=40 / radl=0 / no-splice / no-intra-refresh / ctu=64 / min-cu-size=8 / no-rect / no-amp / max-tu-size=32 / tu-inter-depth=1 / tu-intra-depth=1 / limit-tu=0 / rdoq-level=0 / dynamic-rd=0.00 / no-ssim-rd / signhide / no-tskip / nr-intra=0 / nr-inter=0 / no-constrained-intra / strong-intra-smoothing / max-merge=2 / limit-refs=3 / no-limit-modes / me=1 / subme=2 / merange=57 / temporal-mvp / weightp / no-weightb / no-analyze-src-pics / deblock=0:0 / no-sao / no-sao-non-deblock / rd=3 / no-early-skip / rskip / no-fast-intra / no-tskip-fast / no-cu-lossless / no-b-intra / no-splitrd-skip / rdpenalty=0 / psy-rd=2.00 / psy-rdoq=0.00 / no-rd-refine / no-lossless / cbqpoffs=0 / crqpoffs=0 / rc=crf / crf=18.0 / qcomp=0.60 / qpstep=4 / stats-write=0 / stats-read=0 / vbv-maxrate=160000 / vbv-bufsize=160000 / vbv-init=0.9 / crf-max=0.0 / crf-min=0.0 / ipratio=1.40 / pbratio=1.30 / aq-mode=1 / aq-strength=1.00 / cutree / zone-count=0 / no-strict-cbr / qg-size=32 / no-rc-grain / qpmax=69 / qpmin=0 / no-const-vbv / sar=1 / overscan=0 / videoformat=5 / range=0 / colorprim=2 / transfer=2 / colormatrix=2 / chromaloc=0 / display-window=0 / max-cll=0,0 / min-luma=0 / max-luma=1023 / log2-max-poc-lsb=8 / vui-timing-info / vui-hrd-info / slices=1 / opt-qp-pps / opt-ref-list-length-pps / no-multi-pass-opt-rps / scenecut-bias=0.05 / no-opt-cu-delta-qp / no-aq-motion / no-hdr / no-hdr-opt / no-dhdr10-opt / no-idr-recovery-sei / analysis-reuse-level=5 / scale-factor=0 / refine-intra=0 / refine-inter=0 / refine-mv=0 / refine-ctu-distortion=0 / no-limit-sao / ctu-info=0 / no-lowpass-dct / refine-analysis-type=0 / copy-pic=1 / max-ausize-factor=1.0 / no-dynamic-refine / no-single-sei / no-hevc-aq / qp-adaptation-range=1.00
  22. Default                                  : Yes
  23. Forced                                   : No

  24. Audio #1
  25. ID                                       : 2
  26. ID in the original source medium         : 4352 (0x1100)
  27. Format                                   : MLP FBA 16-ch
  28. Format/Info                              : Meridian Lossless Packing FBA with 16-channel presentation
  29. Commercial name                          : Dolby TrueHD with Dolby Atmos
  30. Codec ID                                 : A_TRUEHD
  31. Duration                                 : 1 h 32 min
  32. Bit rate mode                            : Variable
  33. Bit rate                                 : 3 632 kb/s
  34. Maximum bit rate                         : 6 633 kb/s
  35. Channel(s)                               : 8 channels
  36. Channel layout                           : L R C LFE Ls Rs Lb Rb
  37. Sampling rate                            : 48.0 kHz
  38. Frame rate                               : 1 200.000 FPS (40 SPF)
  39. Compression mode                         : Lossless
  40. Stream size                              : 2.33 GiB (5%)
  41. Title                                    : Gandhi.1982.DISC1.2160p.BluRay.x265.10bit.SDR.DTS-HD.MA.TrueHD.7.1.Atmos-SWTYBLZ
  42. Language                                 : English
  43. Default                                  : Yes
  44. Forced                                   : No
  45. Original source medium                   : Blu-ray
  46. Number of dynamic objects                : 11
  47. Bed channel count                        : 1 channel
  48. Bed channel configuration                : LFE

  49. Audio #2
  50. ID                                       : 3
  51. Format                                   : DTS XLL
  52. Format/Info                              : Digital Theater Systems
  53. Commercial name                          : DTS-HD Master Audio
  54. Codec ID                                 : A_DTS
  55. Duration                                 : 1 h 32 min
  56. Bit rate mode                            : Variable
  57. Bit rate                                 : 4 005 kb/s
  58. Channel(s)                               : 8 channels
  59. Channel layout                           : C L R LFE Lb Rb Lss Rss
  60. Sampling rate                            : 48.0 kHz
  61. Frame rate                               : 93.750 FPS (512 SPF)
  62. Bit depth                                : 24 bits
  63. Compression mode                         : Lossless
  64. Stream size                              : 2.57 GiB (5%)
  65. Title                                    : Gandhi.1982.DISC1.2160p.BluRay.x265.10bit.SDR.DTS-HD.MA.TrueHD.7.1.Atmos-SWTYBLZ
  66. Language                                 : English
  67. Default                                  : No
  68. Forced                                   : No

  69. Audio #3
  70. ID                                       : 4
  71. ID in the original source medium         : 4352 (0x1100)
  72. Format                                   : AC-3
  73. Format/Info                              : Audio Coding 3
  74. Commercial name                          : Dolby Digital
  75. Codec ID                                 : A_AC3
  76. Duration                                 : 1 h 32 min
  77. Bit rate mode                            : Constant
  78. Bit rate                                 : 640 kb/s
  79. Channel(s)                               : 6 channels
  80. Channel layout                           : L R C LFE Ls Rs
  81. Sampling rate                            : 48.0 kHz
  82. Frame rate                               : 31.250 FPS (1536 SPF)
  83. Compression mode                         : Lossy
  84. Stream size                              : 421 MiB (1%)
  85. Title                                    : Gandhi.1982.DISC1.2160p.BluRay.x265.10bit.SDR.DTS-HD.MA.TrueHD.7.1.Atmos-SWTYBLZ
  86. Language                                 : English
  87. Service kind                             : Complete Main
  88. Default                                  : No
  89. Forced                                   : No
  90. Original source medium                   : Blu-ray

  91. Text #1
  92. ID                                       : 5
  93. Format                                   : UTF-8
  94. Codec ID                                 : S_TEXT/UTF8
  95. Codec ID/Info                            : UTF-8 Plain Text
  96. Duration                                 : 1 h 29 min
  97. Bit rate                                 : 53 b/s
  98. Count of elements                        : 1052
  99. Stream size                              : 34.8 KiB (0%)
  100. Title                                    : English-SRT
  101. Language                                 : English
  102. Default                                  : Yes
  103. Forced                                   : No

  104. Text #2
  105. ID                                       : 6
  106. ID in the original source medium         : 4768 (0x12A0)
  107. Format                                   : PGS
  108. Muxing mode                              : zlib
  109. Codec ID                                 : S_HDMV/PGS
  110. Codec ID/Info                            : Picture based subtitle format used on BDs/HD-DVDs
  111. Duration                                 : 1 h 30 min
  112. Bit rate                                 : 33.9 kb/s
  113. Count of elements                        : 2340
  114. Stream size                              : 21.9 MiB (0%)
  115. Title                                    : English-SDH-PGS
  116. Language                                 : English
  117. Default                                  : No
  118. Forced                                   : No
  119. Original source medium                   : Blu-ray

  120. Text #3
  121. ID                                       : 7
  122. ID in the original source medium         : 4769 (0x12A1)
  123. Format                                   : PGS
  124. Muxing mode                              : zlib
  125. Codec ID                                 : S_HDMV/PGS
  126. Codec ID/Info                            : Picture based subtitle format used on BDs/HD-DVDs
  127. Duration                                 : 1 h 29 min
  128. Bit rate                                 : 31.5 kb/s
  129. Count of elements                        : 2110
  130. Stream size                              : 20.1 MiB (0%)
  131. Title                                    : English-PGS
  132. Language                                 : English
  133. Default                                  : No
  134. Forced                                   : No
  135. Original source medium                   : Blu-ray

  136. Text #4
  137. ID                                       : 8
  138. ID in the original source medium         : 4770 (0x12A2)
  139. Format                                   : PGS
  140. Muxing mode                              : zlib
  141. Codec ID                                 : S_HDMV/PGS
  142. Codec ID/Info                            : Picture based subtitle format used on BDs/HD-DVDs
  143. Duration                                 : 1 h 30 min
  144. Bit rate                                 : 33.9 kb/s
  145. Count of elements                        : 2340
  146. Stream size                              : 21.9 MiB (0%)
  147. Title                                    : English-SDH-PGS
  148. Language                                 : English
  149. Default                                  : No
  150. Forced                                   : No
  151. Original source medium                   : Blu-ray

  152. Text #5
  153. ID                                       : 9
  154. ID in the original source medium         : 4771 (0x12A3)
  155. Format                                   : PGS
  156. Muxing mode                              : zlib
  157. Codec ID                                 : S_HDMV/PGS
  158. Codec ID/Info                            : Picture based subtitle format used on BDs/HD-DVDs
  159. Duration                                 : 1 h 29 min
  160. Bit rate                                 : 31.5 kb/s
  161. Count of elements                        : 2110
  162. Stream size                              : 20.1 MiB (0%)
  163. Title                                    : English-PGS
  164. Language                                 : English
  165. Default                                  : No
  166. Forced                                   : No
  167. Original source medium                   : Blu-ray

  168. Text #6
  169. ID                                       : 10
  170. ID in the original source medium         : 4772 (0x12A4)
  171. Format                                   : PGS
  172. Muxing mode                              : zlib
  173. Codec ID                                 : S_HDMV/PGS
  174. Codec ID/Info                            : Picture based subtitle format used on BDs/HD-DVDs
  175. Duration                                 : 1 h 30 min
  176. Bit rate                                 : 16.8 kb/s
  177. Count of elements                        : 2124
  178. Stream size                              : 10.9 MiB (0%)
  179. Title                                    : Arabic-PGS
  180. Language                                 : Arabic
  181. Default                                  : No
  182. Forced                                   : No
  183. Original source medium                   : Blu-ray

  184. Text #7
  185. ID                                       : 11
  186. ID in the original source medium         : 4773 (0x12A5)
  187. Format                                   : PGS
  188. Muxing mode                              : zlib
  189. Codec ID                                 : S_HDMV/PGS
  190. Codec ID/Info                            : Picture based subtitle format used on BDs/HD-DVDs
  191. Duration                                 : 1 h 30 min
  192. Bit rate                                 : 26.8 kb/s
  193. Count of elements                        : 2196
  194. Stream size                              : 17.4 MiB (0%)
  195. Title                                    : Chinese-PGS
  196. Language                                 : Chinese
  197. Default                                  : No
  198. Forced                                   : No
  199. Original source medium                   : Blu-ray

  200. Text #8
  201. ID                                       : 12
  202. ID in the original source medium         : 4774 (0x12A6)
  203. Format                                   : PGS
  204. Muxing mode                              : zlib
  205. Codec ID                                 : S_HDMV/PGS
  206. Codec ID/Info                            : Picture based subtitle format used on BDs/HD-DVDs
  207. Duration                                 : 1 h 30 min
  208. Bit rate                                 : 27.6 kb/s
  209. Count of elements                        : 2228
  210. Stream size                              : 17.9 MiB (0%)
  211. Title                                    : Chinese-PGS
  212. Language                                 : Chinese
  213. Default                                  : No
  214. Forced                                   : No
  215. Original source medium                   : Blu-ray

  216. Text #9
  217. ID                                       : 13
  218. ID in the original source medium         : 4775 (0x12A7)
  219. Format                                   : PGS
  220. Muxing mode                              : zlib
  221. Codec ID                                 : S_HDMV/PGS
  222. Codec ID/Info                            : Picture based subtitle format used on BDs/HD-DVDs
  223. Duration                                 : 1 h 30 min
  224. Bit rate                                 : 26.1 kb/s
  225. Count of elements                        : 1390
  226. Stream size                              : 17.0 MiB (0%)
  227. Title                                    : Danish-PGS
  228. Language                                 : Danish
  229. Default                                  : No
  230. Forced                                   : No
  231. Original source medium                   : Blu-ray

  232. Text #10
  233. ID                                       : 14
  234. ID in the original source medium         : 4776 (0x12A8)
  235. Format                                   : PGS
  236. Muxing mode                              : zlib
  237. Codec ID                                 : S_HDMV/PGS
  238. Codec ID/Info                            : Picture based subtitle format used on BDs/HD-DVDs
  239. Duration                                 : 1 h 30 min
  240. Bit rate                                 : 27.2 kb/s
  241. Count of elements                        : 1386
  242. Stream size                              : 17.7 MiB (0%)
  243. Title                                    : Dutch-PGS
  244. Language                                 : Dutch
  245. Default                                  : No
  246. Forced                                   : No
  247. Original source medium                   : Blu-ray

  248. Text #11
  249. ID                                       : 15
  250. ID in the original source medium         : 4777 (0x12A9)
  251. Format                                   : PGS
  252. Muxing mode                              : zlib
  253. Codec ID                                 : S_HDMV/PGS
  254. Codec ID/Info                            : Picture based subtitle format used on BDs/HD-DVDs
  255. Duration                                 : 1 h 30 min
  256. Bit rate                                 : 28.5 kb/s
  257. Count of elements                        : 1376
  258. Stream size                              : 18.5 MiB (0%)
  259. Title                                    : Finnish-PGS
  260. Language                                 : Finnish
  261. Default                                  : No
  262. Forced                                   : No
  263. Original source medium                   : Blu-ray

  264. Text #12
  265. ID                                       : 16
  266. ID in the original source medium         : 4778 (0x12AA)
  267. Format                                   : PGS
  268. Muxing mode                              : zlib
  269. Codec ID                                 : S_HDMV/PGS
  270. Codec ID/Info                            : Picture based subtitle format used on BDs/HD-DVDs
  271. Duration                                 : 1 h 30 min
  272. Bit rate                                 : 28.9 kb/s
  273. Count of elements                        : 2136
  274. Stream size                              : 18.8 MiB (0%)
  275. Title                                    : French-PGS
  276. Language                                 : French
  277. Default                                  : No
  278. Forced                                   : No
  279. Original source medium                   : Blu-ray

  280. Text #13
  281. ID                                       : 17
  282. ID in the original source medium         : 4779 (0x12AB)
  283. Format                                   : PGS
  284. Muxing mode                              : zlib
  285. Codec ID                                 : S_HDMV/PGS
  286. Codec ID/Info                            : Picture based subtitle format used on BDs/HD-DVDs
  287. Duration                                 : 1 h 30 min
  288. Bit rate                                 : 37.4 kb/s
  289. Count of elements                        : 2134
  290. Stream size                              : 24.3 MiB (0%)
  291. Title                                    : German-PGS
  292. Language                                 : German
  293. Default                                  : No
  294. Forced                                   : No
  295. Original source medium                   : Blu-ray

  296. Text #14
  297. ID                                       : 18
  298. ID in the original source medium         : 4780 (0x12AC)
  299. Format                                   : PGS
  300. Muxing mode                              : zlib
  301. Codec ID                                 : S_HDMV/PGS
  302. Codec ID/Info                            : Picture based subtitle format used on BDs/HD-DVDs
  303. Duration                                 : 1 h 30 min
  304. Bit rate                                 : 23.6 kb/s
  305. Count of elements                        : 2142
  306. Stream size                              : 15.4 MiB (0%)
  307. Title                                    : Greek-PGS
  308. Language                                 : Greek
  309. Default                                  : No
  310. Forced                                   : No
  311. Original source medium                   : Blu-ray

  312. Text #15
  313. ID                                       : 19
  314. ID in the original source medium         : 4781 (0x12AD)
  315. Format                                   : PGS
  316. Muxing mode                              : zlib
  317. Codec ID                                 : S_HDMV/PGS
  318. Codec ID/Info                            : Picture based subtitle format used on BDs/HD-DVDs
  319. Duration                                 : 1 h 30 min
  320. Bit rate                                 : 22.3 kb/s
  321. Count of elements                        : 2136
  322. Stream size                              : 14.5 MiB (0%)
  323. Title                                    : Hebrew-PGS
  324. Language                                 : Hebrew
  325. Default                                  : No
  326. Forced                                   : No
  327. Original source medium                   : Blu-ray

  328. Text #16
  329. ID                                       : 20
  330. ID in the original source medium         : 4782 (0x12AE)
  331. Format                                   : PGS
  332. Muxing mode                              : zlib
  333. Codec ID                                 : S_HDMV/PGS
  334. Codec ID/Info                            : Picture based subtitle format used on BDs/HD-DVDs
  335. Duration                                 : 1 h 30 min
  336. Bit rate                                 : 31.7 kb/s
  337. Count of elements                        : 2150
  338. Stream size                              : 20.6 MiB (0%)
  339. Title                                    : Icelandic-PGS
  340. Language                                 : Icelandic
  341. Default                                  : No
  342. Forced                                   : No
  343. Original source medium                   : Blu-ray

  344. Text #17
  345. ID                                       : 21
  346. ID in the original source medium         : 4783 (0x12AF)
  347. Format                                   : PGS
  348. Muxing mode                              : zlib
  349. Codec ID                                 : S_HDMV/PGS
  350. Codec ID/Info                            : Picture based subtitle format used on BDs/HD-DVDs
  351. Duration                                 : 1 h 30 min
  352. Bit rate                                 : 29.5 kb/s
  353. Count of elements                        : 2116
  354. Stream size                              : 19.2 MiB (0%)
  355. Title                                    : Italian-PGS
  356. Language                                 : Italian
  357. Default                                  : No
  358. Forced                                   : No
  359. Original source medium                   : Blu-ray

  360. Text #18
  361. ID                                       : 22
  362. ID in the original source medium         : 4784 (0x12B0)
  363. Format                                   : PGS
  364. Muxing mode                              : zlib
  365. Codec ID                                 : S_HDMV/PGS
  366. Codec ID/Info                            : Picture based subtitle format used on BDs/HD-DVDs
  367. Duration                                 : 1 h 31 min
  368. Bit rate                                 : 19.8 kb/s
  369. Count of elements                        : 2114
  370. Stream size                              : 12.9 MiB (0%)
  371. Title                                    : Korean-PGS
  372. Language                                 : Korean
  373. Default                                  : No
  374. Forced                                   : No
  375. Original source medium                   : Blu-ray

  376. Text #19
  377. ID                                       : 23
  378. ID in the original source medium         : 4785 (0x12B1)
  379. Format                                   : PGS
  380. Muxing mode                              : zlib
  381. Codec ID                                 : S_HDMV/PGS
  382. Codec ID/Info                            : Picture based subtitle format used on BDs/HD-DVDs
  383. Duration                                 : 1 h 30 min
  384. Bit rate                                 : 24.6 kb/s
  385. Count of elements                        : 1376
  386. Stream size                              : 16.0 MiB (0%)
  387. Title                                    : Norwegian-PGS
  388. Language                                 : Norwegian
  389. Default                                  : No
  390. Forced                                   : No
  391. Original source medium                   : Blu-ray

  392. Text #20
  393. ID                                       : 24
  394. ID in the original source medium         : 4786 (0x12B2)
  395. Format                                   : PGS
  396. Muxing mode                              : zlib
  397. Codec ID                                 : S_HDMV/PGS
  398. Codec ID/Info                            : Picture based subtitle format used on BDs/HD-DVDs
  399. Duration                                 : 1 h 30 min
  400. Bit rate                                 : 28.0 kb/s
  401. Count of elements                        : 2128
  402. Stream size                              : 18.2 MiB (0%)
  403. Title                                    : Portuguese-PGS
  404. Language                                 : Portuguese
  405. Default                                  : No
  406. Forced                                   : No
  407. Original source medium                   : Blu-ray

  408. Text #21
  409. ID                                       : 25
  410. ID in the original source medium         : 4787 (0x12B3)
  411. Format                                   : PGS
  412. Muxing mode                              : zlib
  413. Codec ID                                 : S_HDMV/PGS
  414. Codec ID/Info                            : Picture based subtitle format used on BDs/HD-DVDs
  415. Duration                                 : 1 h 30 min
  416. Bit rate                                 : 32.8 kb/s
  417. Count of elements                        : 2100
  418. Stream size                              : 21.3 MiB (0%)
  419. Title                                    : Portuguese-PGS
  420. Language                                 : Portuguese
  421. Default                                  : No
  422. Forced                                   : No
  423. Original source medium                   : Blu-ray

  424. Text #22
  425. ID                                       : 26
  426. ID in the original source medium         : 4788 (0x12B4)
  427. Format                                   : PGS
  428. Muxing mode                              : zlib
  429. Codec ID                                 : S_HDMV/PGS
  430. Codec ID/Info                            : Picture based subtitle format used on BDs/HD-DVDs
  431. Duration                                 : 1 h 30 min
  432. Bit rate                                 : 28.8 kb/s
  433. Count of elements                        : 2126
  434. Stream size                              : 18.8 MiB (0%)
  435. Title                                    : Spanish-PGS
  436. Language                                 : Spanish
  437. Default                                  : No
  438. Forced                                   : No
  439. Original source medium                   : Blu-ray

  440. Text #23
  441. ID                                       : 27
  442. ID in the original source medium         : 4789 (0x12B5)
  443. Format                                   : PGS
  444. Muxing mode                              : zlib
  445. Codec ID                                 : S_HDMV/PGS
  446. Codec ID/Info                            : Picture based subtitle format used on BDs/HD-DVDs
  447. Duration                                 : 1 h 30 min
  448. Bit rate                                 : 25.7 kb/s
  449. Count of elements                        : 2192
  450. Stream size                              : 16.7 MiB (0%)
  451. Title                                    : Spanish-PGS
  452. Language                                 : Spanish
  453. Default                                  : No
  454. Forced                                   : No
  455. Original source medium                   : Blu-ray

  456. Text #24
  457. ID                                       : 28
  458. ID in the original source medium         : 4789 (0x12B5)
  459. Format                                   : PGS
  460. Muxing mode                              : zlib
  461. Codec ID                                 : S_HDMV/PGS
  462. Codec ID/Info                            : Picture based subtitle format used on BDs/HD-DVDs
  463. Duration                                 : 1 h 20 min
  464. Bit rate                                 : 57 b/s
  465. Count of elements                        : 4
  466. Stream size                              : 33.8 KiB (0%)
  467. Title                                    : Spanish-FORCED-PGS
  468. Language                                 : Spanish
  469. Default                                  : No
  470. Forced                                   : No
  471. Original source medium                   : Blu-ray

  472. Text #25
  473. ID                                       : 29
  474. ID in the original source medium         : 4790 (0x12B6)
  475. Format                                   : PGS
  476. Muxing mode                              : zlib
  477. Codec ID                                 : S_HDMV/PGS
  478. Codec ID/Info                            : Picture based subtitle format used on BDs/HD-DVDs
  479. Duration                                 : 1 h 30 min
  480. Bit rate                                 : 25.2 kb/s
  481. Count of elements                        : 1384
  482. Stream size                              : 16.4 MiB (0%)
  483. Title                                    : Swedish-PGS
  484. Language                                 : Swedish
  485. Default                                  : No
  486. Forced                                   : No
  487. Original source medium                   : Blu-ray

  488. Text #26
  489. ID                                       : 30
  490. ID in the original source medium         : 4791 (0x12B7)
  491. Format                                   : PGS
  492. Muxing mode                              : zlib
  493. Codec ID                                 : S_HDMV/PGS
  494. Codec ID/Info                            : Picture based subtitle format used on BDs/HD-DVDs
  495. Duration                                 : 1 h 30 min
  496. Bit rate                                 : 27.4 kb/s
  497. Count of elements                        : 2138
  498. Stream size                              : 17.8 MiB (0%)
  499. Title                                    : Thai-PGS
  500. Language                                 : Thai
  501. Default                                  : No
  502. Forced                                   : No
  503. Original source medium                   : Blu-ray

  504. Text #27
  505. ID                                       : 31
  506. ID in the original source medium         : 4792 (0x12B8)
  507. Format                                   : PGS
  508. Muxing mode                              : zlib
  509. Codec ID                                 : S_HDMV/PGS
  510. Codec ID/Info                            : Picture based subtitle format used on BDs/HD-DVDs
  511. Duration                                 : 1 h 30 min
  512. Bit rate                                 : 27.0 kb/s
  513. Count of elements                        : 2106
  514. Stream size                              : 17.6 MiB (0%)
  515. Title                                    : Turkish-PGS
  516. Language                                 : Turkish
  517. Default                                  : No
  518. Forced                                   : No
  519. Original source medium                   : Blu-ray

  520. Menu
  521. 00:00:00.000                             : en:Chapter 01
  522. 00:05:59.484                             : en:Chapter 02
  523. 00:11:13.255                             : en:Chapter 03
  524. 00:17:10.154                             : en:Chapter 04
  525. 00:25:54.052                             : en:Chapter 05
  526. 00:31:14.706                             : en:Chapter 06
  527. 00:36:10.209                             : en:Chapter 07
  528. 00:41:21.687                             : en:Chapter 08
  529. 00:45:24.930                             : en:Chapter 09
  530. 00:48:33.994                             : en:Chapter 10
  531. 00:56:18.541                             : en:Chapter 11
  532. 01:03:11.996                             : en:Chapter 12
  533. 01:11:47.219                             : en:Chapter 13
  534. 01:14:37.097                             : en:Chapter 14
  535. 01:24:00.869                             : en:Chapter 15
  536. 01:29:22.106                             : en:Chapter 16
复制代码







回复

使用道具 举报

懒得打字嘛,点击右侧快捷回复 【右侧内容,后台自定义】
您需要登录后才可以回帖 登录 | 立即加入

本版积分规则

现在加入蓝光电影网,注册一个账号
上个主题 下个主题 快速回复 收藏帖子 返回列表 客服中心 搜索

手机版|小黑屋| 蓝光电影网 |网站地图 

Copyright © 2015-2019 Comsenz Inc.  Template by 蓝光电影论坛 All Rights Reserved.

Powered by 蓝光电影网 X3.4

特别声明:本站所有资源均由网上收集而来,版权归原影音公司所有,如果侵犯了你的权益,请通知我们,我们会及时删除侵权内容.

快速回复 返回顶部 返回列表