找回密码

蓝光电影网

查看: 86|回复: 3

[8bit.SDR] 甘地传 Gandhi.1982.DISC1.2160p.BluRay.x264.8bit.SDR.DTS-HD.MA.TrueHD.7.1.Atmos-SWTYBLZ 55.66GB

[复制链接]

 成长值: 15345

发表于 2020-7-22 18:12:43 | 显示全部楼层 |阅读模式
甘地传 Gandhi.1982.DISC1.2160p.BluRay.x264.8bit.SDR.DTS-HD.MA.TrueHD.7.1.Atmos-SWTYBLZ 55.66GB-1.jpeg

◎译  名 甘地传 / Richard Attenborough's Film: Gandhi / 甘地
◎片  名 Gandhi
◎年  代 1982
◎产  地 英国 / 印度 / 美国
◎类  别 剧情 / 传记 / 历史
◎语  言 英语
◎上映日期 1982-12-03
◎IMDb评分  8.0/10 from 214400 users
◎IMDb链接  https://www.imdb.com/title/tt0083987
◎豆瓣评分 8.6/10 from 28728 users
◎豆瓣链接 https://movie.douban.com/subject/1292238/
◎片  长 191 分钟
◎导  演 Richard Attenborough
◎编  剧 John Briley
◎主  演 本·金斯利 Ben Kingsley
       坎迪斯·伯根 Candice Bergen
       爱德华·福克斯 Edward Fox
       约翰·吉尔古德 John Gielgud
       约翰·米尔斯 John Mills
       马丁·辛 Martin Sheen
       丹尼尔·戴-刘易斯 Daniel Day-Lewis

◎标  签 传记 | 印度 | 甘地 | 历史 | 英国 | 人物 | 经典 | 1982
◎简  介

  
  本片记录了印度圣雄甘地史诗般传奇伟大的一生。1893年,24岁的甘地(本?金斯利 Ben Kingsley 饰)受邀前往南非任律师职,决心在当地带领印度移民开展非暴力不合作的抗议活动,并因此入狱。出狱后甘地回到祖国,在三八朗地区建立了高僧修行所,加入了国大党领导的印度独立运动,宣传非暴力不合作的斗争理念。运动中甘地曾四次入狱;在其不懈努力及国大党的带领下,印度独立终于提上议事日程,甘地也于1931年赴伦敦参加商讨独立的圆桌会议。然而随着独立的临近,印度国内穆斯林与印度教人民之间的宗教矛盾日益突出,甘地的非暴力不合作理念又面临着更为严峻的新挑战……
  本片获1982年奥斯卡最佳影片,最佳导演(理查德?阿滕伯勒Richard Attenborough),最佳男演员(本?金斯利),最佳原创剧本,最佳艺术指导,最佳摄影,最佳服装设计和最佳剪辑共八项大奖,并获奥斯卡最佳化妆,最佳电影音乐和最佳音效三项提名。
◎获奖情况  
  第55届奥斯卡金像奖(1983)
  最佳影片 理查德·阿滕伯勒
  最佳导演 理查德·阿滕伯勒
  最佳男主角 本·金斯利
  最佳原创剧本 约翰·布瑞雷
  最佳摄影 罗尼·泰勒 / Billy Williams
  最佳剪辑 John Bloom
  最佳音响(提名) Robin O'Donoghue / Gerry Humphreys / Simon Kaye
  最佳艺术指导 迈克尔·塞尔顿 / Robert W. Laing / 斯图尔特·克莱格
  最佳服装设计 John Mollo / Bhanu Athaiya
  最佳化妆(提名) Tom Smith
  最佳原创配乐(提名) 拉威·香卡 / 乔治·芬顿
  1. Video
  2. ID                                       : 1
  3. Format                                   : AVC
  4. Format/Info                              : Advanced Video Codec
  5. Format profile                           : High@L4.1
  6. Format settings                          : CABAC / 5 Ref Frames
  7. Format settings, CABAC                   : Yes
  8. Format settings, Reference frames        : 5 frames
  9. Codec ID                                 : V_MPEG4/ISO/AVC
  10. Duration                                 : 1 h 32 min
  11. Bit rate                                 : 77.4 Mb/s
  12. Width                                    : 3 840 pixels
  13. Height                                   : 1 606 pixels
  14. Display aspect ratio                     : 2.40:1
  15. Frame rate mode                          : Constant
  16. Frame rate                               : 23.976 (24000/1001/189150) FPS
  17. Color space                              : YUV
  18. Chroma subsampling                       : 4:2:0
  19. Bit depth                                : 8 bits
  20. Scan type                                : Progressive
  21. Bits/(Pixel*Frame)                       : 0.523
  22. Stream size                              : 49.7 GiB (90%)
  23. Title                                    : Gandhi.1982.DISC1.2160p.BluRay.x264.8bit.SDR.DTS-HD.MA.TrueHD.7.1.Atmos-SWTYBLZ
  24. Writing library                          : x264 core 157 r2935 545de2f
  25. Encoding settings                        : cabac=1 / ref=5 / deblock=1:-1:-1 / analyse=0x3:0x113 / me=umh / subme=10 / psy=1 / psy_rd=1.00:0.15 / mixed_ref=1 / me_range=48 / chroma_me=1 / trellis=2 / 8x8dct=1 / cqm=0 / deadzone=21,11 / fast_pskip=1 / chroma_qp_offset=-3 / threads=50 / lookahead_threads=4 / sliced_threads=0 / nr=0 / decimate=0 / interlaced=0 / bluray_compat=0 / constrained_intra=0 / bframes=3 / b_pyramid=2 / b_adapt=2 / b_bias=0 / direct=3 / weightb=1 / open_gop=0 / weightp=2 / keyint=250 / keyint_min=23 / scenecut=40 / intra_refresh=0 / rc_lookahead=50 / rc=crf / mbtree=1 / crf=20.0 / qcomp=0.60 / qpmin=0 / qpmax=69 / qpstep=4 / ip_ratio=1.40 / aq=1:1.00
  26. Default                                  : Yes
  27. Forced                                   : No

  28. Audio #1
  29. ID                                       : 2
  30. ID in the original source medium         : 4352 (0x1100)
  31. Format                                   : MLP FBA 16-ch
  32. Format/Info                              : Meridian Lossless Packing FBA with 16-channel presentation
  33. Commercial name                          : Dolby TrueHD with Dolby Atmos
  34. Codec ID                                 : A_TRUEHD
  35. Duration                                 : 1 h 32 min
  36. Bit rate mode                            : Variable
  37. Bit rate                                 : 3 632 kb/s
  38. Maximum bit rate                         : 6 633 kb/s
  39. Channel(s)                               : 8 channels
  40. Channel layout                           : L R C LFE Ls Rs Lb Rb
  41. Sampling rate                            : 48.0 kHz
  42. Frame rate                               : 1 200.000 FPS (40 SPF)
  43. Compression mode                         : Lossless
  44. Stream size                              : 2.33 GiB (4%)
  45. Title                                    : Gandhi.1982.DISC1.2160p.BluRay.x264.8bit.SDR.DTS-HD.MA.TrueHD.7.1.Atmos-SWTYBLZ
  46. Language                                 : English
  47. Default                                  : Yes
  48. Forced                                   : No
  49. Original source medium                   : Blu-ray
  50. Number of dynamic objects                : 11
  51. Bed channel count                        : 1 channel
  52. Bed channel configuration                : LFE

  53. Audio #2
  54. ID                                       : 3
  55. Format                                   : DTS XLL
  56. Format/Info                              : Digital Theater Systems
  57. Commercial name                          : DTS-HD Master Audio
  58. Codec ID                                 : A_DTS
  59. Duration                                 : 1 h 32 min
  60. Bit rate mode                            : Variable
  61. Bit rate                                 : 4 005 kb/s
  62. Channel(s)                               : 8 channels
  63. Channel layout                           : C L R LFE Lb Rb Lss Rss
  64. Sampling rate                            : 48.0 kHz
  65. Frame rate                               : 93.750 FPS (512 SPF)
  66. Bit depth                                : 24 bits
  67. Compression mode                         : Lossless
  68. Stream size                              : 2.57 GiB (5%)
  69. Title                                    : Gandhi.1982.DISC1.2160p.BluRay.x264.8bit.SDR.DTS-HD.MA.TrueHD.7.1.Atmos-SWTYBLZ
  70. Language                                 : English
  71. Default                                  : No
  72. Forced                                   : No

  73. Audio #3
  74. ID                                       : 4
  75. ID in the original source medium         : 4352 (0x1100)
  76. Format                                   : AC-3
  77. Format/Info                              : Audio Coding 3
  78. Commercial name                          : Dolby Digital
  79. Codec ID                                 : A_AC3
  80. Duration                                 : 1 h 32 min
  81. Bit rate mode                            : Constant
  82. Bit rate                                 : 640 kb/s
  83. Channel(s)                               : 6 channels
  84. Channel layout                           : L R C LFE Ls Rs
  85. Sampling rate                            : 48.0 kHz
  86. Frame rate                               : 31.250 FPS (1536 SPF)
  87. Compression mode                         : Lossy
  88. Stream size                              : 421 MiB (1%)
  89. Title                                    : Gandhi.1982.DISC1.2160p.BluRay.x264.8bit.SDR.DTS-HD.MA.TrueHD.7.1.Atmos-SWTYBLZ
  90. Language                                 : English
  91. Service kind                             : Complete Main
  92. Default                                  : No
  93. Forced                                   : No
  94. Original source medium                   : Blu-ray

  95. Text #1
  96. ID                                       : 5
  97. Format                                   : UTF-8
  98. Codec ID                                 : S_TEXT/UTF8
  99. Codec ID/Info                            : UTF-8 Plain Text
  100. Duration                                 : 1 h 29 min
  101. Bit rate                                 : 53 b/s
  102. Count of elements                        : 1052
  103. Stream size                              : 34.8 KiB (0%)
  104. Title                                    : English-SRT
  105. Language                                 : English
  106. Default                                  : Yes
  107. Forced                                   : No

  108. Text #2
  109. ID                                       : 6
  110. ID in the original source medium         : 4768 (0x12A0)
  111. Format                                   : PGS
  112. Muxing mode                              : zlib
  113. Codec ID                                 : S_HDMV/PGS
  114. Codec ID/Info                            : Picture based subtitle format used on BDs/HD-DVDs
  115. Duration                                 : 1 h 30 min
  116. Bit rate                                 : 33.9 kb/s
  117. Count of elements                        : 2340
  118. Stream size                              : 21.9 MiB (0%)
  119. Title                                    : English-SDH-PGS
  120. Language                                 : English
  121. Default                                  : No
  122. Forced                                   : No
  123. Original source medium                   : Blu-ray

  124. Text #3
  125. ID                                       : 7
  126. ID in the original source medium         : 4769 (0x12A1)
  127. Format                                   : PGS
  128. Muxing mode                              : zlib
  129. Codec ID                                 : S_HDMV/PGS
  130. Codec ID/Info                            : Picture based subtitle format used on BDs/HD-DVDs
  131. Duration                                 : 1 h 29 min
  132. Bit rate                                 : 31.5 kb/s
  133. Count of elements                        : 2110
  134. Stream size                              : 20.1 MiB (0%)
  135. Title                                    : English-PGS
  136. Language                                 : English
  137. Default                                  : No
  138. Forced                                   : No
  139. Original source medium                   : Blu-ray

  140. Text #4
  141. ID                                       : 8
  142. ID in the original source medium         : 4770 (0x12A2)
  143. Format                                   : PGS
  144. Muxing mode                              : zlib
  145. Codec ID                                 : S_HDMV/PGS
  146. Codec ID/Info                            : Picture based subtitle format used on BDs/HD-DVDs
  147. Duration                                 : 1 h 30 min
  148. Bit rate                                 : 33.9 kb/s
  149. Count of elements                        : 2340
  150. Stream size                              : 21.9 MiB (0%)
  151. Title                                    : English-SDH-PGS
  152. Language                                 : English
  153. Default                                  : No
  154. Forced                                   : No
  155. Original source medium                   : Blu-ray

  156. Text #5
  157. ID                                       : 9
  158. ID in the original source medium         : 4771 (0x12A3)
  159. Format                                   : PGS
  160. Muxing mode                              : zlib
  161. Codec ID                                 : S_HDMV/PGS
  162. Codec ID/Info                            : Picture based subtitle format used on BDs/HD-DVDs
  163. Duration                                 : 1 h 29 min
  164. Bit rate                                 : 31.5 kb/s
  165. Count of elements                        : 2110
  166. Stream size                              : 20.1 MiB (0%)
  167. Title                                    : English-PGS
  168. Language                                 : English
  169. Default                                  : No
  170. Forced                                   : No
  171. Original source medium                   : Blu-ray

  172. Text #6
  173. ID                                       : 10
  174. ID in the original source medium         : 4772 (0x12A4)
  175. Format                                   : PGS
  176. Muxing mode                              : zlib
  177. Codec ID                                 : S_HDMV/PGS
  178. Codec ID/Info                            : Picture based subtitle format used on BDs/HD-DVDs
  179. Duration                                 : 1 h 30 min
  180. Bit rate                                 : 16.8 kb/s
  181. Count of elements                        : 2124
  182. Stream size                              : 10.9 MiB (0%)
  183. Title                                    : Arabic-PGS
  184. Language                                 : Arabic
  185. Default                                  : No
  186. Forced                                   : No
  187. Original source medium                   : Blu-ray

  188. Text #7
  189. ID                                       : 11
  190. ID in the original source medium         : 4773 (0x12A5)
  191. Format                                   : PGS
  192. Muxing mode                              : zlib
  193. Codec ID                                 : S_HDMV/PGS
  194. Codec ID/Info                            : Picture based subtitle format used on BDs/HD-DVDs
  195. Duration                                 : 1 h 30 min
  196. Bit rate                                 : 26.8 kb/s
  197. Count of elements                        : 2196
  198. Stream size                              : 17.4 MiB (0%)
  199. Title                                    : Chinese-PGS
  200. Language                                 : Chinese
  201. Default                                  : No
  202. Forced                                   : No
  203. Original source medium                   : Blu-ray

  204. Text #8
  205. ID                                       : 12
  206. ID in the original source medium         : 4774 (0x12A6)
  207. Format                                   : PGS
  208. Muxing mode                              : zlib
  209. Codec ID                                 : S_HDMV/PGS
  210. Codec ID/Info                            : Picture based subtitle format used on BDs/HD-DVDs
  211. Duration                                 : 1 h 30 min
  212. Bit rate                                 : 27.6 kb/s
  213. Count of elements                        : 2228
  214. Stream size                              : 17.9 MiB (0%)
  215. Title                                    : Chinese-PGS
  216. Language                                 : Chinese
  217. Default                                  : No
  218. Forced                                   : No
  219. Original source medium                   : Blu-ray

  220. Text #9
  221. ID                                       : 13
  222. ID in the original source medium         : 4775 (0x12A7)
  223. Format                                   : PGS
  224. Muxing mode                              : zlib
  225. Codec ID                                 : S_HDMV/PGS
  226. Codec ID/Info                            : Picture based subtitle format used on BDs/HD-DVDs
  227. Duration                                 : 1 h 30 min
  228. Bit rate                                 : 26.1 kb/s
  229. Count of elements                        : 1390
  230. Stream size                              : 17.0 MiB (0%)
  231. Title                                    : Danish-PGS
  232. Language                                 : Danish
  233. Default                                  : No
  234. Forced                                   : No
  235. Original source medium                   : Blu-ray

  236. Text #10
  237. ID                                       : 14
  238. ID in the original source medium         : 4776 (0x12A8)
  239. Format                                   : PGS
  240. Muxing mode                              : zlib
  241. Codec ID                                 : S_HDMV/PGS
  242. Codec ID/Info                            : Picture based subtitle format used on BDs/HD-DVDs
  243. Duration                                 : 1 h 30 min
  244. Bit rate                                 : 27.2 kb/s
  245. Count of elements                        : 1386
  246. Stream size                              : 17.7 MiB (0%)
  247. Title                                    : Dutch-PGS
  248. Language                                 : Dutch
  249. Default                                  : No
  250. Forced                                   : No
  251. Original source medium                   : Blu-ray

  252. Text #11
  253. ID                                       : 15
  254. ID in the original source medium         : 4777 (0x12A9)
  255. Format                                   : PGS
  256. Muxing mode                              : zlib
  257. Codec ID                                 : S_HDMV/PGS
  258. Codec ID/Info                            : Picture based subtitle format used on BDs/HD-DVDs
  259. Duration                                 : 1 h 30 min
  260. Bit rate                                 : 28.5 kb/s
  261. Count of elements                        : 1376
  262. Stream size                              : 18.5 MiB (0%)
  263. Title                                    : Finnish-PGS
  264. Language                                 : Finnish
  265. Default                                  : No
  266. Forced                                   : No
  267. Original source medium                   : Blu-ray

  268. Text #12
  269. ID                                       : 16
  270. ID in the original source medium         : 4778 (0x12AA)
  271. Format                                   : PGS
  272. Muxing mode                              : zlib
  273. Codec ID                                 : S_HDMV/PGS
  274. Codec ID/Info                            : Picture based subtitle format used on BDs/HD-DVDs
  275. Duration                                 : 1 h 30 min
  276. Bit rate                                 : 28.9 kb/s
  277. Count of elements                        : 2136
  278. Stream size                              : 18.8 MiB (0%)
  279. Title                                    : French-PGS
  280. Language                                 : French
  281. Default                                  : No
  282. Forced                                   : No
  283. Original source medium                   : Blu-ray

  284. Text #13
  285. ID                                       : 17
  286. ID in the original source medium         : 4779 (0x12AB)
  287. Format                                   : PGS
  288. Muxing mode                              : zlib
  289. Codec ID                                 : S_HDMV/PGS
  290. Codec ID/Info                            : Picture based subtitle format used on BDs/HD-DVDs
  291. Duration                                 : 1 h 30 min
  292. Bit rate                                 : 37.4 kb/s
  293. Count of elements                        : 2134
  294. Stream size                              : 24.3 MiB (0%)
  295. Title                                    : German-PGS
  296. Language                                 : German
  297. Default                                  : No
  298. Forced                                   : No
  299. Original source medium                   : Blu-ray

  300. Text #14
  301. ID                                       : 18
  302. ID in the original source medium         : 4780 (0x12AC)
  303. Format                                   : PGS
  304. Muxing mode                              : zlib
  305. Codec ID                                 : S_HDMV/PGS
  306. Codec ID/Info                            : Picture based subtitle format used on BDs/HD-DVDs
  307. Duration                                 : 1 h 30 min
  308. Bit rate                                 : 23.6 kb/s
  309. Count of elements                        : 2142
  310. Stream size                              : 15.4 MiB (0%)
  311. Title                                    : Greek-PGS
  312. Language                                 : Greek
  313. Default                                  : No
  314. Forced                                   : No
  315. Original source medium                   : Blu-ray

  316. Text #15
  317. ID                                       : 19
  318. ID in the original source medium         : 4781 (0x12AD)
  319. Format                                   : PGS
  320. Muxing mode                              : zlib
  321. Codec ID                                 : S_HDMV/PGS
  322. Codec ID/Info                            : Picture based subtitle format used on BDs/HD-DVDs
  323. Duration                                 : 1 h 30 min
  324. Bit rate                                 : 22.3 kb/s
  325. Count of elements                        : 2136
  326. Stream size                              : 14.5 MiB (0%)
  327. Title                                    : Hebrew-PGS
  328. Language                                 : Hebrew
  329. Default                                  : No
  330. Forced                                   : No
  331. Original source medium                   : Blu-ray

  332. Text #16
  333. ID                                       : 20
  334. ID in the original source medium         : 4782 (0x12AE)
  335. Format                                   : PGS
  336. Muxing mode                              : zlib
  337. Codec ID                                 : S_HDMV/PGS
  338. Codec ID/Info                            : Picture based subtitle format used on BDs/HD-DVDs
  339. Duration                                 : 1 h 30 min
  340. Bit rate                                 : 31.7 kb/s
  341. Count of elements                        : 2150
  342. Stream size                              : 20.6 MiB (0%)
  343. Title                                    : Icelandic-PGS
  344. Language                                 : Icelandic
  345. Default                                  : No
  346. Forced                                   : No
  347. Original source medium                   : Blu-ray

  348. Text #17
  349. ID                                       : 21
  350. ID in the original source medium         : 4783 (0x12AF)
  351. Format                                   : PGS
  352. Muxing mode                              : zlib
  353. Codec ID                                 : S_HDMV/PGS
  354. Codec ID/Info                            : Picture based subtitle format used on BDs/HD-DVDs
  355. Duration                                 : 1 h 30 min
  356. Bit rate                                 : 29.5 kb/s
  357. Count of elements                        : 2116
  358. Stream size                              : 19.2 MiB (0%)
  359. Title                                    : Italian-PGS
  360. Language                                 : Italian
  361. Default                                  : No
  362. Forced                                   : No
  363. Original source medium                   : Blu-ray

  364. Text #18
  365. ID                                       : 22
  366. ID in the original source medium         : 4784 (0x12B0)
  367. Format                                   : PGS
  368. Muxing mode                              : zlib
  369. Codec ID                                 : S_HDMV/PGS
  370. Codec ID/Info                            : Picture based subtitle format used on BDs/HD-DVDs
  371. Duration                                 : 1 h 31 min
  372. Bit rate                                 : 19.8 kb/s
  373. Count of elements                        : 2114
  374. Stream size                              : 12.9 MiB (0%)
  375. Title                                    : Korean-PGS
  376. Language                                 : Korean
  377. Default                                  : No
  378. Forced                                   : No
  379. Original source medium                   : Blu-ray

  380. Text #19
  381. ID                                       : 23
  382. ID in the original source medium         : 4785 (0x12B1)
  383. Format                                   : PGS
  384. Muxing mode                              : zlib
  385. Codec ID                                 : S_HDMV/PGS
  386. Codec ID/Info                            : Picture based subtitle format used on BDs/HD-DVDs
  387. Duration                                 : 1 h 30 min
  388. Bit rate                                 : 24.6 kb/s
  389. Count of elements                        : 1376
  390. Stream size                              : 16.0 MiB (0%)
  391. Title                                    : Norwegian-PGS
  392. Language                                 : Norwegian
  393. Default                                  : No
  394. Forced                                   : No
  395. Original source medium                   : Blu-ray

  396. Text #20
  397. ID                                       : 24
  398. ID in the original source medium         : 4786 (0x12B2)
  399. Format                                   : PGS
  400. Muxing mode                              : zlib
  401. Codec ID                                 : S_HDMV/PGS
  402. Codec ID/Info                            : Picture based subtitle format used on BDs/HD-DVDs
  403. Duration                                 : 1 h 30 min
  404. Bit rate                                 : 28.0 kb/s
  405. Count of elements                        : 2128
  406. Stream size                              : 18.2 MiB (0%)
  407. Title                                    : Portuguese-PGS
  408. Language                                 : Portuguese
  409. Default                                  : No
  410. Forced                                   : No
  411. Original source medium                   : Blu-ray

  412. Text #21
  413. ID                                       : 25
  414. ID in the original source medium         : 4787 (0x12B3)
  415. Format                                   : PGS
  416. Muxing mode                              : zlib
  417. Codec ID                                 : S_HDMV/PGS
  418. Codec ID/Info                            : Picture based subtitle format used on BDs/HD-DVDs
  419. Duration                                 : 1 h 30 min
  420. Bit rate                                 : 32.8 kb/s
  421. Count of elements                        : 2100
  422. Stream size                              : 21.3 MiB (0%)
  423. Title                                    : Portuguese-PGS
  424. Language                                 : Portuguese
  425. Default                                  : No
  426. Forced                                   : No
  427. Original source medium                   : Blu-ray

  428. Text #22
  429. ID                                       : 26
  430. ID in the original source medium         : 4788 (0x12B4)
  431. Format                                   : PGS
  432. Muxing mode                              : zlib
  433. Codec ID                                 : S_HDMV/PGS
  434. Codec ID/Info                            : Picture based subtitle format used on BDs/HD-DVDs
  435. Duration                                 : 1 h 30 min
  436. Bit rate                                 : 28.8 kb/s
  437. Count of elements                        : 2126
  438. Stream size                              : 18.8 MiB (0%)
  439. Title                                    : Spanish-PGS
  440. Language                                 : Spanish
  441. Default                                  : No
  442. Forced                                   : No
  443. Original source medium                   : Blu-ray

  444. Text #23
  445. ID                                       : 27
  446. ID in the original source medium         : 4789 (0x12B5)
  447. Format                                   : PGS
  448. Muxing mode                              : zlib
  449. Codec ID                                 : S_HDMV/PGS
  450. Codec ID/Info                            : Picture based subtitle format used on BDs/HD-DVDs
  451. Duration                                 : 1 h 30 min
  452. Bit rate                                 : 25.7 kb/s
  453. Count of elements                        : 2192
  454. Stream size                              : 16.7 MiB (0%)
  455. Title                                    : Spanish-PGS
  456. Language                                 : Spanish
  457. Default                                  : No
  458. Forced                                   : No
  459. Original source medium                   : Blu-ray

  460. Text #24
  461. ID                                       : 28
  462. ID in the original source medium         : 4789 (0x12B5)
  463. Format                                   : PGS
  464. Muxing mode                              : zlib
  465. Codec ID                                 : S_HDMV/PGS
  466. Codec ID/Info                            : Picture based subtitle format used on BDs/HD-DVDs
  467. Duration                                 : 1 h 20 min
  468. Bit rate                                 : 57 b/s
  469. Count of elements                        : 4
  470. Stream size                              : 33.8 KiB (0%)
  471. Title                                    : Spanish-FORCED-PGS
  472. Language                                 : Spanish
  473. Default                                  : No
  474. Forced                                   : No
  475. Original source medium                   : Blu-ray

  476. Text #25
  477. ID                                       : 29
  478. ID in the original source medium         : 4790 (0x12B6)
  479. Format                                   : PGS
  480. Muxing mode                              : zlib
  481. Codec ID                                 : S_HDMV/PGS
  482. Codec ID/Info                            : Picture based subtitle format used on BDs/HD-DVDs
  483. Duration                                 : 1 h 30 min
  484. Bit rate                                 : 25.2 kb/s
  485. Count of elements                        : 1384
  486. Stream size                              : 16.4 MiB (0%)
  487. Title                                    : Swedish-PGS
  488. Language                                 : Swedish
  489. Default                                  : No
  490. Forced                                   : No
  491. Original source medium                   : Blu-ray

  492. Text #26
  493. ID                                       : 30
  494. ID in the original source medium         : 4791 (0x12B7)
  495. Format                                   : PGS
  496. Muxing mode                              : zlib
  497. Codec ID                                 : S_HDMV/PGS
  498. Codec ID/Info                            : Picture based subtitle format used on BDs/HD-DVDs
  499. Duration                                 : 1 h 30 min
  500. Bit rate                                 : 27.4 kb/s
  501. Count of elements                        : 2138
  502. Stream size                              : 17.8 MiB (0%)
  503. Title                                    : Thai-PGS
  504. Language                                 : Thai
  505. Default                                  : No
  506. Forced                                   : No
  507. Original source medium                   : Blu-ray

  508. Text #27
  509. ID                                       : 31
  510. ID in the original source medium         : 4792 (0x12B8)
  511. Format                                   : PGS
  512. Muxing mode                              : zlib
  513. Codec ID                                 : S_HDMV/PGS
  514. Codec ID/Info                            : Picture based subtitle format used on BDs/HD-DVDs
  515. Duration                                 : 1 h 30 min
  516. Bit rate                                 : 27.0 kb/s
  517. Count of elements                        : 2106
  518. Stream size                              : 17.6 MiB (0%)
  519. Title                                    : Turkish-PGS
  520. Language                                 : Turkish
  521. Default                                  : No
  522. Forced                                   : No
  523. Original source medium                   : Blu-ray

  524. Menu
  525. 00:00:00.000                             : en:Chapter 01
  526. 00:05:59.484                             : en:Chapter 02
  527. 00:11:13.255                             : en:Chapter 03
  528. 00:17:10.154                             : en:Chapter 04
  529. 00:25:54.052                             : en:Chapter 05
  530. 00:31:14.706                             : en:Chapter 06
  531. 00:36:10.209                             : en:Chapter 07
  532. 00:41:21.687                             : en:Chapter 08
  533. 00:45:24.930                             : en:Chapter 09
  534. 00:48:33.994                             : en:Chapter 10
  535. 00:56:18.541                             : en:Chapter 11
  536. 01:03:11.996                             : en:Chapter 12
  537. 01:11:47.219                             : en:Chapter 13
  538. 01:14:37.097                             : en:Chapter 14
  539. 01:24:00.869                             : en:Chapter 15
  540. 01:29:22.106                             : en:Chapter 16
复制代码

甘地传 Gandhi.1982.DISC1.2160p.BluRay.x264.8bit.SDR.DTS-HD.MA.TrueHD.7.1.Atmos-SWTYBLZ 55.66GB-2.png






回复

使用道具 举报

发表于 2020-7-30 14:07:33 | 显示全部楼层

~ 珍惜+支持 ~
回复

使用道具 举报

发表于 2020-8-1 19:41:19 | 显示全部楼层
不错啊啊啊啊啊啊啊啊
回复 支持 反对

使用道具 举报

发表于 2020-8-4 16:39:31 | 显示全部楼层
好经典的老片了。
回复 支持 反对

使用道具 举报

懒得打字嘛,点击右侧快捷回复 【右侧内容,后台自定义】
您需要登录后才可以回帖 登录 | 立即加入

本版积分规则

现在加入蓝光电影网,注册一个账号
上个主题 下个主题 快速回复 收藏帖子 返回列表 客服中心 搜索

手机版|小黑屋| 蓝光电影网 |网站地图 

Copyright © 2015-2019 Comsenz Inc.  Template by 蓝光电影论坛 All Rights Reserved.

Powered by 蓝光电影网 X3.4

特别声明:本站所有资源均由网上收集而来,版权归原影音公司所有,如果侵犯了你的权益,请通知我们,我们会及时删除侵权内容.

快速回复 返回顶部 返回列表