找回密码

蓝光电影网

查看: 159|回复: 0

[10bit.SDR] 我们自由潇洒爱最大 We.Are.Freestyle.Love.Supreme.2020.2160p.HULU.WEBRip.x265.10bit.SDR.DDP5.1-NTG 9.02GB

[复制链接]

 成长值: 15345

发表于 2020-7-22 18:12:37 | 显示全部楼层 |阅读模式
我们自由潇洒爱最大 We.Are.Freestyle.Love.Supreme.2020.2160p.HULU.WEBRip.x265.10bit.SDR.DDP5.1-NTG 9.02GB-1.jpeg

◎译  名 我们自由潇洒爱最大
◎片  名 We Are Freestyle Love Supreme
◎年  代 2020
◎产  地 美国
◎类  别 纪录片
◎语  言 英语
◎上映日期 2020-01-28(圣丹斯电影节) / 2020-06-05(美国)
◎IMDb评分  4.5/10 from 27 users
◎IMDb链接  https://www.imdb.com/title/tt11426644
◎豆瓣评分 0/10 from 0 users
◎豆瓣链接 https://movie.douban.com/subject/34912847/
◎导  演 安德鲁·弗里德 Andrew Fried
◎编  剧 Brian Anton / Peter Curtis
◎主  演 乌特卡什·安邦德卡尔 Utkarsh Ambudkar
       詹姆斯·门罗·伊格尔哈特 James Monroe Iglehart
       克里斯·杰克逊 Chris Jackson
       托马斯·凯尔 Thomas Kail
       林-曼努尔·米兰达 Lin-Manuel Miranda
       Andrew Bancroft
       Arthur Lewis
       Bill Sherman
       Chris Sullivan
       Anthony Veneziale

◎简  介

  
  记录#Lin-Manuel Miranda#创立的即兴hip-hop秀"Freestyle Love Supreme"15年的发展历程。
  1. Video
  2. ID                                       : 1
  3. Format                                   : HEVC
  4. Format/Info                              : High Efficiency Video Coding
  5. Format profile                           : Main High@L4.1@Main
  6. Codec ID                                 : V_MPEGH/ISO/HEVC
  7. Duration                                 : 1 h 25 min
  8. Bit rate                                 : 14.8 Mb/s
  9. Width                                    : 3 840 pixels
  10. Height                                   : 2 160 pixels
  11. Display aspect ratio                     : 16:9
  12. Frame rate mode                          : Constant
  13. Frame rate                               : 23.976 (24000/1001/189150) FPS
  14. Color space                              : YUV
  15. Chroma subsampling                       : 4:2:0
  16. Bit depth                                : 10 bits
  17. Bits/(Pixel*Frame)                       : 0.074
  18. Stream size                              : 8.86 GiB (98%)
  19. Default                                  : Yes
  20. Forced                                   : No

  21. Audio
  22. ID                                       : 2
  23. Format                                   : E-AC-3
  24. Format/Info                              : Enhanced AC-3
  25. Commercial name                          : Dolby Digital Plus
  26. Codec ID                                 : A_EAC3
  27. Duration                                 : 1 h 25 min
  28. Bit rate mode                            : Constant
  29. Bit rate                                 : 256 kb/s
  30. Channel(s)                               : 6 channels
  31. Channel layout                           : L R C LFE Ls Rs
  32. Sampling rate                            : 48.0 kHz
  33. Frame rate                               : 31.250 FPS (1536 SPF)
  34. Compression mode                         : Lossy
  35. Stream size                              : 157 MiB (2%)
  36. Language                                 : English
  37. Service kind                             : Complete Main
  38. Default                                  : Yes
  39. Forced                                   : No

  40. Text #1
  41. ID                                       : 3
  42. Format                                   : UTF-8
  43. Codec ID                                 : S_TEXT/UTF8
  44. Codec ID/Info                            : UTF-8 Plain Text
  45. Duration                                 : 1 h 25 min
  46. Bit rate                                 : 126 b/s
  47. Count of elements                        : 2083
  48. Stream size                              : 79.3 KiB (0%)
  49. Language                                 : English
  50. Default                                  : No
  51. Forced                                   : No

  52. Text #2
  53. ID                                       : 4
  54. Format                                   : UTF-8
  55. Codec ID                                 : S_TEXT/UTF8
  56. Codec ID/Info                            : UTF-8 Plain Text
  57. Duration                                 : 1 h 25 min
  58. Bit rate                                 : 130 b/s
  59. Count of elements                        : 2077
  60. Stream size                              : 81.6 KiB (0%)
  61. Language                                 : Spanish
  62. Default                                  : No
  63. Forced                                   : No
复制代码







回复

使用道具 举报

懒得打字嘛,点击右侧快捷回复 【右侧内容,后台自定义】
您需要登录后才可以回帖 登录 | 立即加入

本版积分规则

现在加入蓝光电影网,注册一个账号
上个主题 下个主题 快速回复 收藏帖子 返回列表 客服中心 搜索

手机版|小黑屋| 蓝光电影网 |网站地图 

Copyright © 2015-2019 Comsenz Inc.  Template by 蓝光电影论坛 All Rights Reserved.

Powered by 蓝光电影网 X3.4

特别声明:本站所有资源均由网上收集而来,版权归原影音公司所有,如果侵犯了你的权益,请通知我们,我们会及时删除侵权内容.

快速回复 返回顶部 返回列表