找回密码

蓝光电影网

查看: 136|回复: 2

[8bit.SDR] 登陆日诺曼底1944 D-Day.Normandy.1944.2014.DOCU.2160p.BluRay.x264.8bit.SDR.DTS-HD.MA.5.1-SWTYBLZ 9.48GB

[复制链接]

 成长值: 15345

发表于 2020-7-22 18:12:32 | 显示全部楼层 |阅读模式
登陆日诺曼底1944 D-Day.Normandy.1944.2014.DOCU.2160p.BluRay.x264.8bit.SDR.DTS-HD.MA.5.1-SWTYBLZ 9.48GB-1.jpeg

◎译  名 登陆日,诺曼底1944
◎片  名 D-Day, Normandie 1944
◎年  代 2014
◎产  地 法国
◎类  别 纪录片
◎语  言 法语
◎上映日期 2014-04-02(法国)
◎IMDb评分  7.6/10 from 105 users
◎IMDb链接  https://www.imdb.com/title/tt3635920
◎豆瓣评分 0/10 from 0 users
◎豆瓣链接 https://movie.douban.com/subject/25907990/
◎片  长 40分钟
◎导  演 Pascal Vuong
◎标  签 2014 | 紀錄片 | 法国 | UHD | PascalVuong | IMAX
◎简  介

  
  D-Day, Normandie 1944 a été spécialement réalisé pour les commémorations rendant hommage à l'opération "Overlord" autrement connue sous le nom de "D-Day" ou "Jour-J". Le fim est diffusé mondialement à l'occasion du 70e anniversaire du Débarquement Allié qui eut lieu sur les plages de Normandie le 6 juin 1944.
  1. Video
  2. ID                                       : 1
  3. Format                                   : AVC
  4. Format/Info                              : Advanced Video Codec
  5. Format profile                           : High@L4.1
  6. Format settings                          : CABAC / 5 Ref Frames
  7. Format settings, CABAC                   : Yes
  8. Format settings, Reference frames        : 5 frames
  9. Codec ID                                 : V_MPEG4/ISO/AVC
  10. Duration                                 : 42 min 56 s
  11. Bit rate                                 : 26.6 Mb/s
  12. Width                                    : 3 840 pixels
  13. Height                                   : 2 160 pixels
  14. Display aspect ratio                     : 16:9
  15. Frame rate mode                          : Constant
  16. Frame rate                               : 24.000 FPS
  17. Color space                              : YUV
  18. Chroma subsampling                       : 4:2:0
  19. Bit depth                                : 8 bits
  20. Scan type                                : Progressive
  21. Bits/(Pixel*Frame)                       : 0.134
  22. Stream size                              : 7.99 GiB (86%)
  23. Title                                    : D-Day.Normandy.1944.2014.DOCU.2160p.BluRay.x264.8bit.SDR.DTS-HD.MA.5.1-SWTYBLZ
  24. Writing library                          : x264 core 157 r2935 545de2f
  25. Encoding settings                        : cabac=1 / ref=5 / deblock=1:-1:-1 / analyse=0x3:0x113 / me=umh / subme=10 / psy=1 / psy_rd=1.00:0.15 / mixed_ref=1 / me_range=48 / chroma_me=1 / trellis=2 / 8x8dct=1 / cqm=0 / deadzone=21,11 / fast_pskip=1 / chroma_qp_offset=-3 / threads=48 / lookahead_threads=4 / sliced_threads=0 / nr=0 / decimate=0 / interlaced=0 / bluray_compat=0 / constrained_intra=0 / bframes=3 / b_pyramid=2 / b_adapt=2 / b_bias=0 / direct=3 / weightb=1 / open_gop=0 / weightp=2 / keyint=250 / keyint_min=24 / scenecut=40 / intra_refresh=0 / rc_lookahead=50 / rc=crf / mbtree=1 / crf=18.0 / qcomp=0.60 / qpmin=0 / qpmax=69 / qpstep=4 / ip_ratio=1.40 / aq=1:1.00
  26. Default                                  : Yes
  27. Forced                                   : No

  28. Audio #1
  29. ID                                       : 2
  30. ID in the original source medium         : 4352 (0x1100)
  31. Format                                   : DTS XLL
  32. Format/Info                              : Digital Theater Systems
  33. Commercial name                          : DTS-HD Master Audio
  34. Codec ID                                 : A_DTS
  35. Duration                                 : 42 min 56 s
  36. Bit rate mode                            : Variable
  37. Bit rate                                 : 3 860 kb/s
  38. Channel(s)                               : 6 channels
  39. Channel layout                           : C L R Ls Rs LFE
  40. Sampling rate                            : 48.0 kHz
  41. Frame rate                               : 93.750 FPS (512 SPF)
  42. Bit depth                                : 24 bits
  43. Compression mode                         : Lossless
  44. Stream size                              : 1.16 GiB (12%)
  45. Title                                    : D-Day.Normandy.1944.2014.DOCU.2160p.BluRay.x264.8bit.SDR.DTS-HD.MA.5.1-SWTYBLZ
  46. Language                                 : English
  47. Default                                  : No
  48. Forced                                   : No
  49. Original source medium                   : Blu-ray

  50. Audio #2
  51. ID                                       : 3
  52. Format                                   : AC-3
  53. Format/Info                              : Audio Coding 3
  54. Commercial name                          : Dolby Digital
  55. Codec ID                                 : A_AC3
  56. Duration                                 : 42 min 56 s
  57. Bit rate mode                            : Constant
  58. Bit rate                                 : 640 kb/s
  59. Channel(s)                               : 6 channels
  60. Channel layout                           : L R C LFE Ls Rs
  61. Sampling rate                            : 48.0 kHz
  62. Frame rate                               : 31.250 FPS (1536 SPF)
  63. Compression mode                         : Lossy
  64. Stream size                              : 197 MiB (2%)
  65. Title                                    : D-Day.Normandy.1944.2014.DOCU.2160p.BluRay.x264.8bit.SDR.DTS-HD.MA.5.1-SWTYBLZ
  66. Language                                 : English
  67. Service kind                             : Complete Main
  68. Default                                  : Yes
  69. Forced                                   : No

  70. Text #1
  71. ID                                       : 4
  72. Format                                   : UTF-8
  73. Codec ID                                 : S_TEXT/UTF8
  74. Codec ID/Info                            : UTF-8 Plain Text
  75. Duration                                 : 42 min 11 s
  76. Bit rate                                 : 74 b/s
  77. Count of elements                        : 709
  78. Stream size                              : 22.9 KiB (0%)
  79. Title                                    : English-SRT
  80. Language                                 : English
  81. Default                                  : Yes
  82. Forced                                   : No

  83. Text #2
  84. ID                                       : 5
  85. ID in the original source medium         : 4768 (0x12A0)
  86. Format                                   : PGS
  87. Muxing mode                              : zlib
  88. Codec ID                                 : S_HDMV/PGS
  89. Codec ID/Info                            : Picture based subtitle format used on BDs/HD-DVDs
  90. Duration                                 : 42 min 19 s
  91. Bit rate                                 : 34.1 kb/s
  92. Count of elements                        : 1524
  93. Stream size                              : 10.3 MiB (0%)
  94. Title                                    : English-PGS
  95. Language                                 : English
  96. Default                                  : No
  97. Forced                                   : No
  98. Original source medium                   : Blu-ray

  99. Menu
  100. 00:00:00.000                             : en:Chapter 01
  101. 00:04:41.958                             : en:Chapter 02
  102. 00:06:45.625                             : en:Chapter 03
  103. 00:09:00.083                             : en:Chapter 04
  104. 00:11:09.000                             : en:Chapter 05
  105. 00:16:05.375                             : en:Chapter 06
  106. 00:20:13.000                             : en:Chapter 07
  107. 00:23:23.416                             : en:Chapter 08
  108. 00:26:18.583                             : en:Chapter 09
  109. 00:28:59.500                             : en:Chapter 10
  110. 00:34:46.041                             : en:Chapter 11
  111. 00:40:27.000                             : en:Chapter 12
复制代码

登陆日诺曼底1944 D-Day.Normandy.1944.2014.DOCU.2160p.BluRay.x264.8bit.SDR.DTS-HD.MA.5.1-SWTYBLZ 9.48GB-2.png
登陆日诺曼底1944 D-Day.Normandy.1944.2014.DOCU.2160p.BluRay.x264.8bit.SDR.DTS-HD.MA.5.1-SWTYBLZ 9.48GB-3.png






回复

使用道具 举报

发表于 2020-7-24 10:37:39 | 显示全部楼层
感谢分享!
回复

使用道具 举报

发表于 2020-7-24 22:24:02 | 显示全部楼层

既然你诚信诚意的推荐了,那我就勉为其难的看看吧!蓝光电影网不走平凡路。
回复 支持 反对

使用道具 举报

懒得打字嘛,点击右侧快捷回复 【右侧内容,后台自定义】
您需要登录后才可以回帖 登录 | 立即加入

本版积分规则

现在加入蓝光电影网,注册一个账号
上个主题 下个主题 快速回复 收藏帖子 返回列表 客服中心 搜索

手机版|小黑屋| 蓝光电影网 |网站地图 

Copyright © 2015-2019 Comsenz Inc.  Template by 蓝光电影论坛 All Rights Reserved.

Powered by 蓝光电影网 X3.4

特别声明:本站所有资源均由网上收集而来,版权归原影音公司所有,如果侵犯了你的权益,请通知我们,我们会及时删除侵权内容.

快速回复 返回顶部 返回列表