找回密码

蓝光电影网

查看: 208|回复: 2

[10bit.HDR] 斯巴达克斯/万夫莫敌 Spartacus.1960.2160p.UHD.BluRay.X265.10bit.HDR.DTS-X.7.1-IAMABLE 41.80GB

[复制链接]

 成长值: 15345

发表于 2020-7-22 18:12:29 | 显示全部楼层 |阅读模式
斯巴达克斯/万夫莫敌 Spartacus.1960.2160p.UHD.BluRay.X265.10bit.HDR.DTS-X.7.1-IAMABLE 41.80GB-1.jpeg

◎译  名 斯巴达克斯 / 万夫莫敌(台) / 斯巴达克思 / 风云群英会(港)
◎片  名 Spartacus
◎年  代 1960
◎产  地 美国
◎类  别 剧情 / 动作 / 传记 / 历史 / 冒险
◎语  言 英语
◎上映日期 1960-10-07
◎IMDb评分  7.9/10 from 121139 users
◎IMDb链接  https://www.imdb.com/title/tt0054331
◎豆瓣评分 8.0/10 from 17368 users
◎豆瓣链接 https://movie.douban.com/subject/1298366/
◎片  长 184分钟(首映版)
◎导  演 Stanley Kubrick
◎编  剧 Dalton Trumbo / Calder Willingham
◎主  演 Kirk Douglas
       Laurence Olivier
       Jean Simmons
       Charles Laughton
       Peter Ustinov
       John Gavin
       Nina Foch
       Tony Curtis

◎标  签 美国 | 史诗 | 战争 | 斯坦利·库布里克 | 历史 | 库布里克 | StanleyKubrick | 1960
◎简  介

  
  公元前73年,来自古罗马利比亚省的奴隶斯巴达克斯(柯克?道格拉斯 Kirk Douglas 饰)在加普亚格斗学校中爱上了女奴瓦瑞妮娅(琼?西蒙斯 Jean Simmons 饰)。同年,格斗学校的奴隶在斯巴达克斯带领下发动起义,获得自由,随后斯巴达克斯与瓦瑞妮娅团聚,结为夫妇。起义震惊了罗马的统治集团,激化了元老院中贵族派和平民派的矛盾。贵族将领克拉苏(劳伦斯?奥利维尔 Laurence Olivier 饰)乘机击败平民派首领格拉古(查尔斯?劳顿 Charles Laughton 饰),篡夺了首席执政官的权力,实行独裁。格拉古为了打击克拉苏,打算私下放走奴隶大军;克拉苏却重金收买了海盗,并召回在国外作战的两支大军。斯巴达克斯起义军三面受敌,寡不抵众,数万奴隶战死,他与妻子和六千幸存战友均被克拉苏所俘。在最后的关头,由于格拉古的帮助,情况又发生了变化。
◎获奖情况  
  第33届奥斯卡金像奖(1961)
  最佳男配角 彼得·乌斯蒂诺夫
  彩色片最佳摄影 拉塞尔·麦蒂
  最佳剪辑(提名) Robert Lawrence
  彩色片最佳艺术指导和布景 Eric Orbom / 亚历山大·高利思 / Julia Heron / 罗素·A·盖斯曼
  彩色片最佳服装设计 瓦勒斯 / Bill Thomas
  剧情/喜剧片最佳配乐(提名) 阿历克斯·诺斯
  第18届金球奖(1961)
  电影类 最佳剧情片
  电影类 最佳导演(提名) 斯坦利·库布里克
  电影类 剧情片最佳男主角(提名) 劳伦斯·奥利弗
  电影类 最佳男配角(提名) 彼得·乌斯蒂诺夫 / 伍迪·斯特罗德
  电影类 最佳原创配乐(提名) 阿历克斯·诺斯
  1. Video
  2. ID                                       : 1
  3. Format                                   : HEVC
  4. Format/Info                              : High Efficiency Video Coding
  5. Format profile                           : Main High@L4.1@High
  6. HDR format                               : SMPTE ST 2086, HDR10 compatible
  7. Codec ID                                 : V_MPEGH/ISO/HEVC
  8. Duration                                 : 3 h 16 min
  9. Bit rate                                 : 24.3 Mb/s
  10. Width                                    : 3 840 pixels
  11. Height                                   : 1 746 pixels
  12. Display aspect ratio                     : 2.2:1
  13. Frame rate mode                          : Constant
  14. Frame rate                               : 23.976 (24000/1001/189150) FPS
  15. Color space                              : YUV
  16. Chroma subsampling                       : 4:2:0 (Type 2)
  17. Bit depth                                : 10 bits
  18. Bits/(Pixel*Frame)                       : 0.151
  19. Stream size                              : 33.3 GiB (80%)
  20. Writing library                          : x265 3.47b120308dc64:[Windows][MSVC 1900][64 bit] 10bit
  21. Encoding settings                        : cpuid=1176575 / frame-threads=5 / numa-pools=36 / wpp / no-pmode / no-pme / no-psnr / no-ssim / log-level=2 / input-csp=1 / input-res=3840x1746 / interlace=0 / total-frames=282870 / level-idc=51 / high-tier=1 / uhd-bd=0 / ref=4 / no-allow-non-conformance / repeat-headers / annexb / aud / hrd / info / hash=0 / no-temporal-layers / no-open-gop / min-keyint=23 / keyint=250 / gop-lookahead=0 / bframes=4 / b-adapt=2 / b-pyramid / bframe-bias=0 / rc-lookahead=25 / lookahead-slices=4 / scenecut=40 / hist-scenecut=0 / radl=0 / no-splice / no-intra-refresh / ctu=64 / min-cu-size=8 / rect / no-amp / max-tu-size=32 / tu-inter-depth=1 / tu-intra-depth=1 / limit-tu=0 / rdoq-level=2 / dynamic-rd=0.00 / no-ssim-rd / signhide / no-tskip / nr-intra=0 / nr-inter=0 / no-constrained-intra / no-strong-intra-smoothing / max-merge=3 / limit-refs=3 / limit-modes / me=3 / subme=3 / merange=57 / temporal-mvp / no-frame-dup / no-hme / weightp / no-weightb / no-analyze-src-pics / deblock=-3:-3 / no-sao / no-sao-non-deblock / rd=4 / selective-sao=0 / no-early-skip / rskip / no-fast-intra / no-tskip-fast / no-cu-lossless / no-b-intra / no-splitrd-skip / rdpenalty=0 / psy-rd=2.00 / psy-rdoq=1.00 / no-rd-refine / no-lossless / cbqpoffs=0 / crqpoffs=0 / rc=crf / crf=16.0 / qcomp=0.60 / qpstep=4 / stats-write=0 / stats-read=0 / vbv-maxrate=160000 / vbv-bufsize=160000 / vbv-init=0.9 / crf-max=0.0 / crf-min=0.0 / ipratio=1.40 / pbratio=1.30 / aq-mode=2 / aq-strength=0.70 / cutree / zone-count=0 / no-strict-cbr / qg-size=32 / no-rc-grain / qpmax=69 / qpmin=0 / no-const-vbv / sar=1 / overscan=0 / videoformat=5 / range=0 / colorprim=9 / transfer=16 / colormatrix=9 / chromaloc=1 / chromaloc-top=2 / chromaloc-bottom=2 / display-window=0 / master-display=G(13250,34500)B(7500,3000)R(34000,16000)WP(15635,16450)L(10000000,1) / cll=1000,92 / min-luma=0 / max-luma=1023 / log2-max-poc-lsb=8 / vui-timing-info / vui-hrd-info / slices=1 / no-opt-qp-pps / no-opt-ref-list-length-pps / no-multi-pass-opt-rps / scenecut-bias=0.05 / hist-threshold=0.01 / no-opt-cu-delta-qp / no-aq-motion / hdr10 / hdr10-opt / no-dhdr10-opt / no-idr-recovery-sei / analysis-reuse-level=0 / analysis-save-reuse-level=0 / analysis-load-reuse-level=0 / scale-factor=0 / refine-intra=0 / refine-inter=0 / refine-mv=1 / refine-ctu-distortion=0 / no-limit-sao / ctu-info=0 / no-lowpass-dct / refine-analysis-type=0 / copy-pic=1 / max-ausize-factor=1.0 / no-dynamic-refine / no-single-sei / no-hevc-aq / no-svt / no-field / qp-adaptation-range=1.00 / no-scenecut-aware-qpconformance-window-offsets / right=0 / bottom=0 / decoder-max-rate=0
  22. Default                                  : Yes
  23. Forced                                   : No
  24. Color range                              : Limited
  25. Color primaries                          : BT.2020
  26. Transfer characteristics                 : PQ
  27. Matrix coefficients                      : BT.2020 non-constant
  28. Mastering display color primaries        : Display P3
  29. Mastering display luminance              : min: 0.0001 cd/m2, max: 1000 cd/m2
  30. Maximum Content Light Level              : 1000 cd/m2
  31. Maximum Frame-Average Light Level        : 92 cd/m2
  32. Audio
  33. ID                                       : 2
  34. Format                                   : DTS XLL X
  35. Format/Info                              : Digital Theater Systems
  36. Commercial name                          : DTS-HD Master Audio
  37. Codec ID                                 : A_DTS
  38. Duration                                 : 3 h 16 min
  39. Bit rate mode                            : Variable
  40. Bit rate                                 : 5 965 kb/s
  41. Channel(s)                               : 8 channels
  42. Channel(s)_Original                      : Object Based
  43. Channel layout                           : Object Based
  44. Sampling rate                            : 48.0 kHz
  45. Frame rate                               : 93.750 FPS (512 SPF)
  46. Bit depth                                : 24 bits
  47. Stream size                              : 8.19 GiB (20%)
  48. Title                                    : DTS-HD MA 7.1
  49. Language                                 : English
  50. Default                                  : Yes
  51. Forced                                   : No
  52. Text #1
  53. ID                                       : 3
  54. Format                                   : UTF-8
  55. Codec ID                                 : S_TEXT/UTF8
  56. Codec ID/Info                            : UTF-8 Plain Text
  57. Duration                                 : 3 h 5 min
  58. Bit rate                                 : 46 b/s
  59. Count of elements                        : 1806
  60. Stream size                              : 62.7 KiB (0%)
  61. Title                                    : Stripped SRT
  62. Language                                 : English
  63. Default                                  : No
  64. Forced                                   : No
  65. Text #2
  66. ID                                       : 4
  67. Format                                   : UTF-8
  68. Codec ID                                 : S_TEXT/UTF8
  69. Codec ID/Info                            : UTF-8 Plain Text
  70. Duration                                 : 3 h 5 min
  71. Bit rate                                 : 48 b/s
  72. Count of elements                        : 1949
  73. Stream size                              : 65.7 KiB (0%)
  74. Title                                    : SDH SRT
  75. Language                                 : English
  76. Default                                  : No
  77. Forced                                   : No
  78. Text #3
  79. ID                                       : 5
  80. Format                                   : PGS
  81. Muxing mode                              : zlib
  82. Codec ID                                 : S_HDMV/PGS
  83. Codec ID/Info                            : Picture based subtitle format used on BDs/HD-DVDs
  84. Duration                                 : 3 h 5 min
  85. Bit rate                                 : 31.1 kb/s
  86. Count of elements                        : 3900
  87. Stream size                              : 41.2 MiB (0%)
  88. Title                                    : English
  89. Language                                 : English
  90. Default                                  : No
  91. Forced                                   : No
  92. Text #4
  93. ID                                       : 6
  94. Format                                   : PGS
  95. Muxing mode                              : zlib
  96. Codec ID                                 : S_HDMV/PGS
  97. Codec ID/Info                            : Picture based subtitle format used on BDs/HD-DVDs
  98. Duration                                 : 3 h 13 min
  99. Bit rate                                 : 29.0 kb/s
  100. Count of elements                        : 3586
  101. Stream size                              : 40.1 MiB (0%)
  102. Title                                    : French
  103. Language                                 : French
  104. Default                                  : No
  105. Forced                                   : No
  106. Text #5
  107. ID                                       : 7
  108. Format                                   : PGS
  109. Muxing mode                              : zlib
  110. Codec ID                                 : S_HDMV/PGS
  111. Codec ID/Info                            : Picture based subtitle format used on BDs/HD-DVDs
  112. Duration                                 : 3 h 13 min
  113. Bit rate                                 : 27.5 kb/s
  114. Count of elements                        : 3592
  115. Stream size                              : 38.1 MiB (0%)
  116. Title                                    : Spanish
  117. Language                                 : Spanish
  118. Default                                  : No
  119. Forced                                   : No
  120. Text #6
  121. ID                                       : 8
  122. Format                                   : PGS
  123. Muxing mode                              : zlib
  124. Codec ID                                 : S_HDMV/PGS
  125. Codec ID/Info                            : Picture based subtitle format used on BDs/HD-DVDs
  126. Duration                                 : 3 h 16 min
  127. Bit rate                                 : 27.7 kb/s
  128. Count of elements                        : 3596
  129. Stream size                              : 38.9 MiB (0%)
  130. Title                                    : Portuguese
  131. Language                                 : Portuguese
  132. Default                                  : No
  133. Forced                                   : No
  134. Text #7
  135. ID                                       : 9
  136. Format                                   : PGS
  137. Muxing mode                              : zlib
  138. Codec ID                                 : S_HDMV/PGS
  139. Codec ID/Info                            : Picture based subtitle format used on BDs/HD-DVDs
  140. Duration                                 : 3 h 5 min
  141. Bit rate                                 : 20.5 kb/s
  142. Count of elements                        : 3356
  143. Stream size                              : 27.2 MiB (0%)
  144. Title                                    : Japanese
  145. Language                                 : Japanese
  146. Default                                  : No
  147. Forced                                   : No
  148. Menu
  149. 00:00:00.000                             : en:Chapter 01
  150. 00:04:04.035                             : en:Chapter 02
  151. 00:14:05.636                             : en:Chapter 03
  152. 00:19:05.603                             : en:Chapter 04
  153. 00:31:56.540                             : en:Chapter 05
  154. 00:43:13.508                             : en:Chapter 06
  155. 00:53:03.639                             : en:Chapter 07
  156. 01:01:47.162                             : en:Chapter 08
  157. 01:20:18.647                             : en:Chapter 09
  158. 01:41:47.059                             : en:Chapter 10
  159. 01:47:55.761                             : en:Chapter 11
  160. 01:50:18.403                             : en:Chapter 12
  161. 02:10:43.919                             : en:Chapter 13
  162. 02:30:02.785                             : en:Chapter 14
  163. 03:00:56.971                             : en:Chapter 15
  164. 03:10:09.523                             : en:Chapter 16
复制代码







回复

使用道具 举报

发表于 2020-7-26 09:47:19 | 显示全部楼层
感谢分享!
回复

使用道具 举报

已抛锚 成长值: 300

发表于 2020-7-30 21:50:24 | 显示全部楼层
楼主发贴辛苦了,谢谢楼主分享!我觉得蓝光电影网是注册对了!
回复 支持 反对

使用道具 举报

懒得打字嘛,点击右侧快捷回复 【右侧内容,后台自定义】
您需要登录后才可以回帖 登录 | 立即加入

本版积分规则

现在加入蓝光电影网,注册一个账号
上个主题 下个主题 快速回复 收藏帖子 返回列表 客服中心 搜索

手机版|小黑屋| 蓝光电影网 |网站地图 

Copyright © 2015-2019 Comsenz Inc.  Template by 蓝光电影论坛 All Rights Reserved.

Powered by 蓝光电影网 X3.4

特别声明:本站所有资源均由网上收集而来,版权归原影音公司所有,如果侵犯了你的权益,请通知我们,我们会及时删除侵权内容.

快速回复 返回顶部 返回列表