找回密码

蓝光电影网

查看: 359|回复: 18

[剧情] 卡萨诺瓦/浓情威尼斯 Casanova.2005.1080p.BluRay.x264.DTS-FGT 8.84GB

[复制链接]

 成长值: 26755

发表于 2020-7-1 00:24:52 | 显示全部楼层 |阅读模式
卡萨诺瓦/浓情威尼斯 Casanova.2005.1080p.BluRay.x264.DTS-FGT 8.84GB-1.png


译  名 卡萨诺瓦 / 浓情威尼斯
片  名 Casanova
年  代 2005
产  地 美国
类  别 剧情 / 喜剧 / 爱情 / 冒险
语  言 英语
上映日期 2005-12-25(美国)
IMDb评分  6.5/10 from 51136 users
IMDb链接  https://www.imdb.com/title/tt0402894
豆瓣评分 7.1/10 from 17112 users
豆瓣链接 https://movie.douban.com/subject/1470346/
片  长 112 分钟
导  演 Lasse Hallstr?m
编  剧 杰弗里·哈彻 Jeffrey Hatcher / Kimberly Simi
主  演 希斯·莱杰 Heath Ledger
       西耶娜·米勒 Sienna Miller
       杰瑞米·艾恩斯 Jeremy Irons
       奥利弗·普莱特 Oliver Platt
       莉娜·奥琳 Lena Olin
       欧米德·吉亚李利 Omid Djalili
       Stephen Greif
       肯·斯托特 Ken Stott
       海伦·麦克洛瑞 Helen McCrory
       利·劳森 Leigh Lawson
       蒂姆·麦克纳尼 Tim McInnerny
       查理·考克斯 Charlie Cox
       娜塔莉·多默尔 Natalie Dormer
       菲尔·戴维斯 Philip Davis
       Paddy Ward


标  签 爱情 | 美国 | HeathLedger | 喜剧 | Casanova | 美国电影 | 古装 | 浪漫

简  介  

  贾柯莫·卡萨诺瓦(希斯·莱杰 Heath Ledger 饰)是威尼斯著名的浪荡子,从伯爵夫人到禁欲修女,似乎每个女人都抵抗不了他的睿智和风流。终于,他的放荡行为触怒了宗教局,被捕之后险些处以绞刑,幸好朋友及时出现力挽了狂澜。朋友警告卡萨诺瓦,如果不能找到一个正派女子结婚 ,他将被逐出威尼斯。卡萨诺瓦幼年时母亲离他而去,并且许下承诺将来会来威尼斯与他重聚,卡萨诺瓦一直相信着这个诺言。为了等待母亲,即使带上了婚姻的枷锁,他也要留在威尼斯。在机缘巧合之下,卡萨诺瓦认识了弗朗西斯卡(西耶娜·米勒 Sienna Miller 饰)。弗朗斯西卡思想前卫,饱读诗书又主张男女平等,这一切对于见惯了肤浅女人的卡萨诺瓦来说有着致命的吸引力。但是一方面,他们两人都有着未履行的婚约。另一方面,聪慧的弗朗西斯卡就像一头彪悍的小马那样难以驯服,卡萨诺瓦必须做出巨大的努力,才能捕获他的芳心。而在这条艰难的道路上,卡萨诺瓦渐渐的领悟了爱情与欲望的区别。
  1. Video
  2. ID                                       : 1
  3. Format                                   : AVC
  4. Format/Info                              : Advanced Video Codec
  5. Format profile                           : High@L4
  6. Format settings                          : CABAC / 7 Ref Frames
  7. Format settings, CABAC                   : Yes
  8. Format settings, Reference frames        : 7 frames
  9. Codec ID                                 : V_MPEG4/ISO/AVC
  10. Duration                                 : 1 h 51 min
  11. Bit rate                                 : 9 600 kb/s
  12. Width                                    : 1 920 pixels
  13. Height                                   : 800 pixels
  14. Display aspect ratio                     : 2.40:1
  15. Frame rate mode                          : Constant
  16. Frame rate                               : 23.976 FPS
  17. Color space                              : YUV
  18. Chroma subsampling                       : 4:2:0
  19. Bit depth                                : 8 bits
  20. Scan type                                : Progressive
  21. Bits/(Pixel*Frame)                       : 0.261
  22. Stream size                              : 7.48 GiB (85%)
  23. Writing library                          : x264 core 56 svn-682C
  24. Encoding settings                        : cabac=1 / ref=4 / deblock=1:0:0 / analyse=0x3:0x133 / me=hex / fpel_cmp=sad / subme=6 / me-prepass=0 / brdo=0 / mixed_ref=0 / me_range=16 / chroma_me=1 / trellis=1 / 8x8dct=1 / cqm=2 / deadzone=21,11 / chroma_qp_offset=0 / threads=3 / nr=0 / decimate=1 / mbaff=0 / bframes=3 / b_pyramid=1 / b_adapt=1 / b_bias=0 / direct=3 / wpredb=1 / bime=0 / keyint=250 / keyint_min=25 / scenecut=40(pre) / rc=crf / crf=18.0 / rceq='blurCplx^(1-qComp)' / qcomp=0.60 / qpmin=10 / qpmax=51 / qpstep=4 / ip_ratio=1.40 / pb_ratio=1.30 / aq=1:0.3:15.0
  25. Language                                 : English
  26. Default                                  : Yes
  27. Forced                                   : No

  28. Audio
  29. ID                                       : 2
  30. Format                                   : DTS
  31. Format/Info                              : Digital Theater Systems
  32. Codec ID                                 : A_DTS
  33. Duration                                 : 1 h 51 min
  34. Bit rate mode                            : Constant
  35. Bit rate                                 : 1 510 kb/s
  36. Channel(s)                               : 6 channels
  37. Channel layout                           : C L R Ls Rs LFE
  38. Sampling rate                            : 48.0 kHz
  39. Frame rate                               : 93.750 FPS (512 SPF)
  40. Bit depth                                : 24 bits
  41. Compression mode                         : Lossy
  42. Stream size                              : 1.18 GiB (13%)
  43. Language                                 : English
  44. Default                                  : Yes
  45. Forced                                   : No
复制代码

卡萨诺瓦/浓情威尼斯 Casanova.2005.1080p.BluRay.x264.DTS-FGT 8.84GB-2.jpg
卡萨诺瓦/浓情威尼斯 Casanova.2005.1080p.BluRay.x264.DTS-FGT 8.84GB-3.jpg
卡萨诺瓦/浓情威尼斯 Casanova.2005.1080p.BluRay.x264.DTS-FGT 8.84GB-4.jpg
卡萨诺瓦/浓情威尼斯 Casanova.2005.1080p.BluRay.x264.DTS-FGT 8.84GB-5.jpg








回复

使用道具 举报

发表于 2020-7-1 01:05:40 | 显示全部楼层

这个帖子不回对不起自己!我想我是一天也不能离开蓝光电影网
回复 支持 反对

使用道具 举报

发表于 2020-7-1 03:47:44 | 显示全部楼层
怀念希斯莱杰
回复 支持 反对

使用道具 举报

发表于 2020-7-1 06:15:11 | 显示全部楼层
楼主发贴辛苦了,谢谢楼主分享!我觉得蓝光电影网是注册对了!
回复 支持 反对

使用道具 举报

发表于 2020-7-1 07:51:19 | 显示全部楼层
谢谢分享,快乐每一天
回复 支持 反对

使用道具 举报

发表于 2020-7-1 07:57:13 | 显示全部楼层
楼主发贴辛苦了,谢谢楼主分享!我觉得蓝光电影网是注册对了!
回复 支持 反对

使用道具 举报

发表于 2020-7-1 09:19:49 | 显示全部楼层
楼主发贴辛苦了,谢谢楼主分享!我觉得蓝光电影网是注册对了!
回复 支持 反对

使用道具 举报

 成长值: 4180

发表于 2020-7-1 09:33:30 | 显示全部楼层
太好啦&萬分感謝版主的無私發佈分享%
回复 支持 反对

使用道具 举报

发表于 2020-7-1 09:40:22 | 显示全部楼层

感谢楼主的无私分享!要想蓝光电影网好 就靠你我他
回复 支持 反对

使用道具 举报

已抛锚 成长值: 310

发表于 2020-7-1 10:05:57 | 显示全部楼层
卡萨诺瓦渐渐的领悟了爱情与欲望的区别。
回复 支持 反对

使用道具 举报

懒得打字嘛,点击右侧快捷回复 【右侧内容,后台自定义】
您需要登录后才可以回帖 登录 | 立即加入

本版积分规则

上个主题 下个主题 快速回复 收藏帖子 返回列表 客服中心 搜索
现在加入蓝光电影网,注册一个账号

手机版|小黑屋| 蓝光电影网  |网站地图

Copyright © 2015-2019 Comsenz Inc.  Template by 蓝光电影论坛 All Rights Reserved.

Powered by 蓝光电影网 X3.4

特别声明:本站所有资源均由网上收集而来,版权归原影音公司所有,如果侵犯了你的权益,请通知我们,我们会及时删除侵权内容.

快速回复 返回顶部 返回列表