找回密码

蓝光电影网

查看: 107|回复: 5

[喜剧] 分家总动员 House.Broken.2009.1080p.BluRay.x264.DTS-FGT 8.09GB

[复制链接]

 成长值: 26755

发表于 2020-7-1 00:23:21 | 显示全部楼层 |阅读模式
分家总动员 House.Broken.2009.1080p.BluRay.x264.DTS-FGT 8.09GB-1.png


译  名 分家总动员
片  名 House Broken
年  代 2009
产  地 美国
类  别 喜剧
语  言 英语
上映日期 2009
IMDb评分  4.7/10 from 2066 users
IMDb链接  https://www.imdb.com/title/tt1054631
豆瓣评分 5.6/10 from 417 users
豆瓣链接 https://movie.douban.com/subject/3932051/
片  长 84 分钟
导  演 Sam Harper
编  剧 Sam Harper
主  演 丹尼·德维托 Danny DeVito
       斯凯勒·斯通 Skyler Stone
       瑞恩·汉森 Ryan Hansen
       布丽·拉尔森 Brie Larson
       托马斯·F·威尔森 Thomas F. Wilson
       琪兰·席普卡 Kiernan Shipka
       Caitlin Crosby


标  签 喜剧 | 美国 | 家庭 | 美国电影 | 2009 | 亲情 | 电影 | 烂片

简  介  

  Tom Cathcart在消防队工作了25年,退休之后,他希望和爱妻开心地度过退休时光。为此他绞尽脑汁,千方百计把奇懒无比、赖在家里不愿独立生活的20多岁的儿子赶出家门。
  1. Video
  2. ID                                       : 1
  3. Format                                   : AVC
  4. Format/Info                              : Advanced Video Codec
  5. Format profile                           : High@L4
  6. Format settings                          : CABAC / 4 Ref Frames
  7. Format settings, CABAC                   : Yes
  8. Format settings, Reference frames        : 4 frames
  9. Codec ID                                 : V_MPEG4/ISO/AVC
  10. Duration                                 : 1 h 31 min
  11. Bit rate                                 : 10.9 Mb/s
  12. Nominal bit rate                         : 11.5 Mb/s
  13. Width                                    : 1 920 pixels
  14. Height                                   : 1 080 pixels
  15. Display aspect ratio                     : 16:9
  16. Frame rate mode                          : Constant
  17. Frame rate                               : 23.976 (24000/1001/189150) FPS
  18. Color space                              : YUV
  19. Chroma subsampling                       : 4:2:0
  20. Bit depth                                : 8 bits
  21. Scan type                                : Progressive
  22. Bits/(Pixel*Frame)                       : 0.219
  23. Stream size                              : 6.97 GiB (86%)
  24. Writing library                          : x264 core 144 r96 40bb568
  25. Encoding settings                        : cabac=1 / ref=4 / deblock=1:-2:-2 / analyse=0x3:0x113 / me=umh / subme=7 / psy=1 / psy_rd=1.00:0.15 / mixed_ref=1 / me_range=16 / chroma_me=1 / trellis=1 / 8x8dct=1 / cqm=0 / deadzone=21,11 / fast_pskip=1 / chroma_qp_offset=-3 / threads=12 / lookahead_threads=3 / sliced_threads=0 / nr=0 / decimate=1 / interlaced=0 / bluray_compat=0 / constrained_intra=0 / bframes=3 / b_pyramid=2 / b_adapt=2 / b_bias=0 / direct=3 / weightb=1 / open_gop=0 / weightp=2 / keyint=250 / keyint_min=25 / scenecut=40 / intra_refresh=0 / rc_lookahead=50 / rc=abr / mbtree=1 / bitrate=11500 / ratetol=1.0 / qcomp=0.60 / qpmin=0 / qpmax=69 / qpstep=4 / vbv_maxrate=31250 / vbv_bufsize=31250 / nal_hrd=none / filler=0 / ip_ratio=1.40 / aq=1:1.00
  26. Language                                 : English
  27. Default                                  : Yes
  28. Forced                                   : No

  29. Audio
  30. ID                                       : 2
  31. Format                                   : DTS
  32. Format/Info                              : Digital Theater Systems
  33. Codec ID                                 : A_DTS
  34. Duration                                 : 1 h 31 min
  35. Bit rate mode                            : Constant
  36. Bit rate                                 : 1 509 kb/s
  37. Channel(s)                               : 6 channels
  38. Channel layout                           : C L R Ls Rs LFE
  39. Sampling rate                            : 48.0 kHz
  40. Frame rate                               : 93.750 FPS (512 SPF)
  41. Bit depth                                : 24 bits
  42. Compression mode                         : Lossy
  43. Stream size                              : 987 MiB (12%)
  44. Language                                 : English
  45. Default                                  : Yes
  46. Forced                                   : No

  47. Menu
  48. 00:00:00.000                             : en:00:00:00.000
  49. 00:04:50.040                             : en:00:04:50.040
  50. 00:14:40.004                             : en:00:14:40.004
  51. 00:22:25.010                             : en:00:22:25.010
  52. 00:33:29.966                             : en:00:33:29.966
  53. 00:41:44.001                             : en:00:41:44.001
  54. 00:54:28.974                             : en:00:54:28.974
  55. 01:03:08.952                             : en:01:03:08.952
  56. 01:09:47.934                             : en:01:09:47.934
  57. 01:19:14.875                             : en:01:19:14.875
  58. 01:25:15.902                             : en:01:25:15.902
  59. 01:29:19.896                             : en:01:29:19.896
复制代码

分家总动员 House.Broken.2009.1080p.BluRay.x264.DTS-FGT 8.09GB-2.jpg







回复

使用道具 举报

 成长值: 4180

发表于 2020-7-1 09:33:42 | 显示全部楼层
太好啦&萬分感謝版主的無私發佈分享%
回复 支持 反对

使用道具 举报

发表于 2020-7-1 11:09:10 | 显示全部楼层
支持一下
回复

使用道具 举报

发表于 2020-7-1 21:32:37 | 显示全部楼层

这东西我收了!谢谢楼主!蓝光电影网真好!
回复 支持 反对

使用道具 举报

发表于 2020-7-1 22:48:12 | 显示全部楼层
楼主发贴辛苦了,谢谢楼主分享!我觉得蓝光电影网是注册对了!
回复 支持 反对

使用道具 举报

发表于 2020-7-2 05:49:10 | 显示全部楼层

感谢楼主的无私分享!要想蓝光电影网好 就靠你我他
回复 支持 反对

使用道具 举报

懒得打字嘛,点击右侧快捷回复 【右侧内容,后台自定义】
您需要登录后才可以回帖 登录 | 立即加入

本版积分规则

上个主题 下个主题 快速回复 收藏帖子 返回列表 客服中心 搜索
现在加入蓝光电影网,注册一个账号

手机版|小黑屋| 蓝光电影网  |网站地图

Copyright © 2015-2019 Comsenz Inc.  Template by 蓝光电影论坛 All Rights Reserved.

Powered by 蓝光电影网 X3.4

特别声明:本站所有资源均由网上收集而来,版权归原影音公司所有,如果侵犯了你的权益,请通知我们,我们会及时删除侵权内容.

快速回复 返回顶部 返回列表