找回密码

蓝光电影网

查看: 74|回复: 1

[剧情] 天生爱情狂 Don.Juan.DeMarco.1994.1080p.BluRay.x264.DTS-FGT 10.28GB

[复制链接]

 成长值: 26755

发表于 2020-7-1 00:18:12 | 显示全部楼层 |阅读模式
天生爱情狂 Don.Juan.DeMarco.1994.1080p.BluRay.x264.DTS-FGT 10.28GB-1.png


译  名 天生爱情狂 / Don Juan DeMarco and the Centerfold / 唐璜 / 唐璜德马科 / 天生爱情狂(港) / 这个男人有点色(台)
片  名 Don Juan DeMarco
年  代 1994
产  地 美国
类  别 剧情 / 喜剧 / 爱情
语  言 英语 / 西班牙语
上映日期 1994-10 / 1995-04-07(美国)
IMDb评分  6.7/10 from 47142 users
IMDb链接  https://www.imdb.com/title/tt0112883
豆瓣评分 8.1/10 from 16481 users
豆瓣链接 https://movie.douban.com/subject/1296246/
片  长 97 分钟
导  演 杰里米·莱文 Jeremy Leven
编  剧 杰里米·莱文 Jeremy Leven / 拜伦 Lord Byron
主  演 Johnny Depp
       Marlon Brando
       Faye Dunaway
       Géraldine Pailhas
       Bob Dishy


标  签 JohnnyDepp | 爱情 | 美国 | 约翰尼·德普 | MarlonBrando | 美国电影 | 唐璜 | 剧情

简  介  

  精神科医生杰克(马龙·白兰度 Marlon Brando 饰)的家庭平静但缺少激情,随着年岁的增长,他感到曾经的梦想离自己越来越远。就在离退休还有10天时,他接手了一个有妄想症,企图自杀的青年。青年自称唐璜(约翰尼·德普 Johnny Depp 饰),带着面具,穿着不符合时代的长靴和披风,佩带长剑,他因被最爱的女人抛弃,而萌生了自杀的念头。唐璜虽然行为举止十分怪异,但却有着无法抵挡的个人魅力,他向杰克倾诉自己的过往,他的传奇经历深深吸引了杰克,同时也引发了他对自己婚姻生活的深刻的思考。就在杰克被唐璜吸引之时,唐璜的祖母和母亲相继出现,两人所言却大相径庭。
  他到底是谁?只是一个疯疯癫癫的浪荡子,还是真的是一个背负着沉重过去的大情圣?10天很快就要过去了,面对同事和法官,他又会做出怎样的选择呢?

获奖情况  

  第68届奥斯卡金像奖(1996)
  最佳原创歌曲(提名) 迈克尔·凯曼 / 布莱恩·亚当斯 / Robert John Lange
  1. Video
  2. ID                                       : 1
  3. Format                                   : AVC
  4. Format/Info                              : Advanced Video Codec
  5. Format profile                           : High@L4
  6. Format settings                          : CABAC / 4 Ref Frames
  7. Format settings, CABAC                   : Yes
  8. Format settings, Reference frames        : 4 frames
  9. Codec ID                                 : V_MPEG4/ISO/AVC
  10. Duration                                 : 1 h 37 min
  11. Bit rate                                 : 13.6 Mb/s
  12. Width                                    : 1 920 pixels
  13. Height                                   : 1 080 pixels
  14. Display aspect ratio                     : 16:9
  15. Frame rate mode                          : Constant
  16. Frame rate                               : 23.976 (24000/1001/189150) FPS
  17. Color space                              : YUV
  18. Chroma subsampling                       : 4:2:0
  19. Bit depth                                : 8 bits
  20. Scan type                                : Progressive
  21. Bits/(Pixel*Frame)                       : 0.274
  22. Stream size                              : 9.05 GiB (88%)
  23. Writing library                          : x264 core 120 r2164 da19765
  24. Encoding settings                        : cabac=1 / ref=4 / deblock=1:-3:-3 / analyse=0x3:0x113 / me=umh / subme=10 / psy=1 / psy_rd=0.90:0.10 / mixed_ref=1 / me_range=32 / chroma_me=1 / trellis=2 / 8x8dct=1 / cqm=0 / deadzone=21,11 / fast_pskip=0 / chroma_qp_offset=-3 / threads=6 / sliced_threads=0 / nr=0 / decimate=0 / interlaced=0 / bluray_compat=0 / constrained_intra=0 / bframes=7 / b_pyramid=2 / b_adapt=2 / b_bias=0 / direct=3 / weightb=1 / open_gop=0 / weightp=2 / keyint=240 / keyint_min=23 / scenecut=40 / intra_refresh=0 / rc=2pass / mbtree=0 / bitrate=13633 / ratetol=1.0 / qcomp=0.70 / qpmin=0 / qpmax=69 / qpstep=4 / cplxblur=20.0 / qblur=0.5 / ip_ratio=1.40 / pb_ratio=1.30 / aq=2:0.80
  25. Language                                 : English
  26. Default                                  : Yes
  27. Forced                                   : No

  28. Audio
  29. ID                                       : 2
  30. Format                                   : DTS
  31. Format/Info                              : Digital Theater Systems
  32. Codec ID                                 : A_DTS
  33. Duration                                 : 1 h 37 min
  34. Bit rate mode                            : Constant
  35. Bit rate                                 : 1 509 kb/s
  36. Channel(s)                               : 6 channels
  37. Channel layout                           : C L R Ls Rs LFE
  38. Sampling rate                            : 48.0 kHz
  39. Frame rate                               : 93.750 FPS (512 SPF)
  40. Bit depth                                : 24 bits
  41. Compression mode                         : Lossy
  42. Stream size                              : 1.02 GiB (10%)
  43. Language                                 : English
  44. Default                                  : Yes
  45. Forced                                   : No

  46. Text
  47. ID                                       : 3
  48. Format                                   : UTF-8
  49. Codec ID                                 : S_TEXT/UTF8
  50. Codec ID/Info                            : UTF-8 Plain Text
  51. Language                                 : English
  52. Default                                  : No
  53. Forced                                   : No

  54. Menu
  55. 00:00:00.000                             : en:Chapter 01
  56. 00:03:44.641                             : en:Chapter 02
  57. 00:07:38.875                             : en:Chapter 03
  58. 00:12:30.666                             : en:Chapter 04
  59. 00:18:33.445                             : en:Chapter 05
  60. 00:21:45.220                             : en:Chapter 06
  61. 00:24:47.068                             : en:Chapter 07
  62. 00:27:38.740                             : en:Chapter 08
  63. 00:32:27.612                             : en:Chapter 09
  64. 00:38:13.291                             : en:Chapter 10
  65. 00:43:10.462                             : en:Chapter 11
  66. 00:49:47.275                             : en:Chapter 12
  67. 00:53:47.432                             : en:Chapter 13
  68. 00:58:44.938                             : en:Chapter 14
  69. 01:07:15.072                             : en:Chapter 15
  70. 01:09:24.368                             : en:Chapter 16
  71. 01:12:14.455                             : en:Chapter 17
  72. 01:15:43.455                             : en:Chapter 18
  73. 01:20:33.078                             : en:Chapter 19
  74. 01:24:44.496                             : en:Chapter 20
  75. 01:28:55.538                             : en:Chapter 21
  76. 01:31:12.091                             : en:Chapter 22
  77. 01:36:10.574                             : en:Chapter 23
复制代码









回复

使用道具 举报

发表于 2020-7-1 15:36:13 | 显示全部楼层

感谢楼主的无私分享!要想蓝光电影网好 就靠你我他
回复 支持 反对

使用道具 举报

懒得打字嘛,点击右侧快捷回复 【右侧内容,后台自定义】
您需要登录后才可以回帖 登录 | 立即加入

本版积分规则

上个主题 下个主题 快速回复 收藏帖子 返回列表 客服中心 搜索
现在加入蓝光电影网,注册一个账号

手机版|小黑屋| 蓝光电影网  |网站地图

Copyright © 2015-2019 Comsenz Inc.  Template by 蓝光电影论坛 All Rights Reserved.

Powered by 蓝光电影网 X3.4

特别声明:本站所有资源均由网上收集而来,版权归原影音公司所有,如果侵犯了你的权益,请通知我们,我们会及时删除侵权内容.

快速回复 返回顶部 返回列表