找回密码

蓝光电影网

查看: 139|回复: 3

[动作] 龙卷风/龙卷风暴 Twister.1996.1080p.BluRay.x264.DTS-FGT 10.27GB

[复制链接]

 成长值: 26755

发表于 2020-7-1 00:15:51 | 显示全部楼层 |阅读模式
龙卷风/龙卷风暴 Twister.1996.1080p.BluRay.x264.DTS-FGT 10.27GB-1.png


译  名 龙卷风 / 龙卷风暴
片  名 Twister
年  代 1996
产  地 美国
类  别 动作 / 冒险 / 灾难
语  言 英语
上映日期 1996-05-10
IMDb评分  6.4/10 from 171657 users
IMDb链接  https://www.imdb.com/title/tt0117998
豆瓣评分 7.3/10 from 25284 users
豆瓣链接 https://movie.douban.com/subject/1292454/
片  长 113 分钟
导  演 Jan de Bont
编  剧 Michael Crichton / Anne-Marie Martin
主  演 Helen Hunt
       Bill Paxton
       Cary Elwes
       Jami Gertz
       Philip Seymour Hoffman


标  签 灾难 | 美国 | 美国电影 | 科幻 | 龙卷风 | 灾难片 | 1996 | 电影

简  介  

  龙卷风的暴戾和神秘吸引了大批科学家的深入研究,深入风暴中间是最危险的行为,但亦是探索龙卷风最有效的方法。乔(海伦·亨特 Helen Hunt饰)和离婚的丈夫比尔(比尔·帕克斯顿 Bill Paxton饰)就是这类“与龙共舞”的科学家,即使他们感情已经破裂,比尔也已找到新的恋人,但出于对龙卷风研究的痴迷,他们还是决定共同追逐一场俄克拉何马州的飓风,并把新研制成功的探测仪“多萝西”放到龙卷风中心收集数据。
  他们驾驶着破旧的货车,带领着追风队,向最危险的地方进发。同时,另一队装备精良的人马也朝着这个方向驶去,由裘纳(加利·艾尔维斯 Cary Elwes饰)领队,在追风行动中和乔激励较劲。
  一边是志同道合的乔,一边是畏惧惊险生活的新女友,比尔在追风过程中如何重新抉择自己的感情道路?更重要的是,面对实力雄厚的对手,和随时葬身其中的龙卷风,乔和比尔如何实现自己的追风梦想?

获奖情况  

  第69届奥斯卡金像奖(1997)
  最佳视觉效果(提名) Habib Zargarpour / 斯蒂芬·范米尔 / 约翰·弗雷泽 / 亨利·拉伯塔
  最佳音响(提名) 格雷格·兰达克 / 凯文·奥康奈尔 / 杰弗里·帕特森 / 史蒂夫·马斯洛
  1. Video
  2. ID                                       : 1
  3. Format                                   : AVC
  4. Format/Info                              : Advanced Video Codec
  5. Format profile                           : High@L4
  6. Format settings                          : CABAC / 5 Ref Frames
  7. Format settings, CABAC                   : Yes
  8. Format settings, Reference frames        : 5 frames
  9. Codec ID                                 : V_MPEG4/ISO/AVC
  10. Duration                                 : 1 h 53 min
  11. Bit rate                                 : 11.5 Mb/s
  12. Width                                    : 1 920 pixels
  13. Height                                   : 794 pixels
  14. Display aspect ratio                     : 2.40:1
  15. Frame rate mode                          : Constant
  16. Frame rate                               : 23.976 (24000/1001/189150) FPS
  17. Color space                              : YUV
  18. Chroma subsampling                       : 4:2:0
  19. Bit depth                                : 8 bits
  20. Scan type                                : Progressive
  21. Bits/(Pixel*Frame)                       : 0.315
  22. Stream size                              : 8.88 GiB (86%)
  23. Writing library                          : x264 core 119 r2106 07efeb4
  24. Encoding settings                        : cabac=1 / ref=5 / deblock=1:-3:-3 / analyse=0x3:0x133 / me=umh / subme=11 / psy=1 / psy_rd=1.10:0.00 / mixed_ref=1 / me_range=48 / chroma_me=1 / trellis=2 / 8x8dct=1 / cqm=0 / deadzone=21,11 / fast_pskip=0 / chroma_qp_offset=-2 / threads=6 / sliced_threads=0 / nr=0 / decimate=0 / interlaced=0 / bluray_compat=0 / constrained_intra=0 / bframes=7 / b_pyramid=2 / b_adapt=2 / b_bias=0 / direct=3 / weightb=1 / open_gop=0 / weightp=2 / keyint=250 / keyint_min=23 / scenecut=40 / intra_refresh=0 / rc=2pass / mbtree=0 / bitrate=11500 / ratetol=1.0 / qcomp=0.60 / qpmin=0 / qpmax=69 / qpstep=4 / cplxblur=20.0 / qblur=0.5 / ip_ratio=1.40 / pb_ratio=1.30 / aq=2:1.00
  25. Language                                 : English
  26. Default                                  : Yes
  27. Forced                                   : No
  28. Color range                              : Limited
  29. Color primaries                          : BT.709
  30. Transfer characteristics                 : BT.709
  31. Matrix coefficients                      : BT.709

  32. Audio
  33. ID                                       : 2
  34. Format                                   : DTS
  35. Format/Info                              : Digital Theater Systems
  36. Codec ID                                 : A_DTS
  37. Duration                                 : 1 h 53 min
  38. Bit rate mode                            : Constant
  39. Bit rate                                 : 1 509 kb/s
  40. Channel(s)                               : 6 channels
  41. Channel layout                           : C L R Ls Rs LFE
  42. Sampling rate                            : 48.0 kHz
  43. Frame rate                               : 93.750 FPS (512 SPF)
  44. Bit depth                                : 16 bits
  45. Compression mode                         : Lossy
  46. Stream size                              : 1.19 GiB (12%)
  47. Language                                 : English
  48. Default                                  : Yes
  49. Forced                                   : No

  50. Text #1
  51. ID                                       : 3
  52. Format                                   : UTF-8
  53. Codec ID                                 : S_TEXT/UTF8
  54. Codec ID/Info                            : UTF-8 Plain Text
  55. Language                                 : English
  56. Default                                  : No
  57. Forced                                   : No

  58. Text #2
  59. ID                                       : 4
  60. Format                                   : UTF-8
  61. Codec ID                                 : S_TEXT/UTF8
  62. Codec ID/Info                            : UTF-8 Plain Text
  63. Title                                    : SDH
  64. Language                                 : English
  65. Default                                  : No
  66. Forced                                   : No

  67. Menu
  68. 00:00:00.000                             : en:01. 1960 Prologue
  69. 00:04:46.620                             : en:02. A Long Day Ahead
  70. 00:05:43.009                             : en:03. One More Signature
  71. 00:12:47.433                             : en:04. Dorothy
  72. 00:15:47.947                             : en:05. Tagging Along
  73. 00:18:54.800                             : en:06. Corporate Kissbutt
  74. 00:21:09.602                             : en:07. Storm Chaser Medley
  75. 00:26:43.268                             : en:08. Getting Better at This
  76. 00:29:03.075                             : en:09. Intercept Course...in a Rut
  77. 00:31:44.736                             : en:10. Braced for Action
  78. 00:33:25.837                             : en:11. "Where's My Truck?"
  79. 00:35:56.988                             : en:12. Battle Zone
  80. 00:41:34.826                             : en:13. Cow in the Core
  81. 00:45:09.373                             : en:14. Tall Tales of the Extreme
  82. 00:49:34.471                             : en:15. Like Old Times
  83. 00:53:08.352                             : en:16. Rabbit Tracks
  84. 00:56:37.561                             : en:17. The Fun Part
  85. 00:59:06.710                             : en:18. In Harm's Way
  86. 01:02:12.896                             : en:19. In Front of Jo and...
  87. 01:05:15.745                             : en:20. The Shining - and the...
  88. 01:11:29.285                             : en:21. Helter Skelter Shelter
  89. 01:15:13.008                             : en:22. "I Can't Compete with..."
  90. 01:18:15.190                             : en:23. Rescuing Meg
  91. 01:22:45.627                             : en:24. What Jo Does
  92. 01:24:33.902                             : en:25. Making Dorothy Fly
  93. 01:27:53.435                             : en:26. Out on a Limb
  94. 01:30:09.571                             : en:27. Heavy Traffic
  95. 01:31:19.641                             : en:28. Right at Jonas
  96. 01:34:32.000                             : en:29. Dodging Deadly Debris
  97. 01:36:14.936                             : en:30. Launch Complete
  98. 01:38:50.424                             : en:31. Had a Farm
  99. 01:41:08.896                             : en:32. Hang On!
  100. 01:43:28.702                             : en:33. Seen Enough Sky
  101. 01:45:37.665                             : en:34. Landscape / End Credits
复制代码

龙卷风/龙卷风暴 Twister.1996.1080p.BluRay.x264.DTS-FGT 10.27GB-2.jpg
龙卷风/龙卷风暴 Twister.1996.1080p.BluRay.x264.DTS-FGT 10.27GB-3.jpg







回复

使用道具 举报

 成长值: 3505

发表于 2020-7-1 10:23:17 | 显示全部楼层
谢谢楼主无私分享。
回复 支持 反对

使用道具 举报

发表于 2020-7-1 15:25:37 | 显示全部楼层
楼主发贴辛苦了,谢谢楼主分享!我觉得蓝光电影网是注册对了!
回复 支持 反对

使用道具 举报

发表于 2020-7-1 17:43:23 | 显示全部楼层

楼主太厉害了!楼主,电影应该很好看我觉得蓝光电影网真是个好地方!
回复 支持 反对

使用道具 举报

懒得打字嘛,点击右侧快捷回复 【右侧内容,后台自定义】
您需要登录后才可以回帖 登录 | 立即加入

本版积分规则

上个主题 下个主题 快速回复 收藏帖子 返回列表 客服中心 搜索
现在加入蓝光电影网,注册一个账号

手机版|小黑屋| 蓝光电影网  |网站地图

Copyright © 2015-2019 Comsenz Inc.  Template by 蓝光电影论坛 All Rights Reserved.

Powered by 蓝光电影网 X3.4

特别声明:本站所有资源均由网上收集而来,版权归原影音公司所有,如果侵犯了你的权益,请通知我们,我们会及时删除侵权内容.

快速回复 返回顶部 返回列表