找回密码

蓝光电影网

查看: 100|回复: 3

[悬疑] 不死劫/惊心动魄 Unbreakable.2000.1080p.BluRay.x264.DTS-FGT 7.94GB

[复制链接]

 成长值: 26755

发表于 2020-7-1 00:13:04 | 显示全部楼层 |阅读模式
不死劫/惊心动魄 Unbreakable.2000.1080p.BluRay.x264.DTS-FGT 7.94GB-1.png


译  名 不死劫 / 惊心动魄(台) / 生死劫
片  名 Unbreakable
年  代 2000
产  地 美国
类  别 悬疑 / 惊悚 / 犯罪
语  言 英语
上映日期 2000-11-22(美国)
IMDb评分  7.3/10 from 377635 users
IMDb链接  https://www.imdb.com/title/tt0217869
豆瓣评分 6.8/10 from 18404 users
豆瓣链接 https://movie.douban.com/subject/1301711/
片  长 106分钟
导  演 M·奈特·沙马兰 M. Night Shyamalan
编  剧 M·奈特·沙马兰 M. Night Shyamalan
主  演 布鲁斯·威利斯 Bruce Willis
       塞缪尔·杰克逊 Samuel L. Jackson
       罗宾·怀特 Robin Wright
       斯宾塞·崔特·克拉克 Spencer Treat Clark
       查莱宁·伍德拉德 Charlayne Woodard
       伊默恩·沃克 Eamonn Walker
       莱斯利·史蒂芬森 Leslie Stefanson
       Elizabeth Lawrence
       劳拉·里根 Laura Regan
       蔡斯·凯利 Chance Kelly
       迈克尔·凯利 Michael Kelly
       法尔德斯·巴姆 Firdous Bamji
       詹姆斯·汉迪 James Handy
       理查德·肯索尔 Richard Council
       达米安·杨 Damian Young
       M·奈特·沙马兰 M. Night Shyamalan
       Sasha Neulinger
       Ukee Washington
       Todd Berry
       Julia Yorks
       约翰·帕特里克·阿梅多利 John Patrick Amedori
       安东尼博斯克 Anthony Bosco
       Chrismandu
       詹妮弗·黑尔 Jennifer Hale
       娜塔莉·霍尔特曼 Natalie Hultman
       Greg Korin
       布莱斯·列侬 Bryce Lenon
       John Martineau
       Joey Perillo
       Mark Poulton
       大卫罗姆 David C. Roehm Sr.
       Jonathan Sachar


标  签 悬疑 | 美国 | 科幻 | 布鲁斯·威利斯 | 惊悚 | 剧情 | 2000 | BruceWillis

简  介  

  一场火车对撞的惨剧夺去131名乘客的性命,大卫?杜恩(Bruce Willis 布鲁斯?威利斯 饰)奇迹般地成为这场灾难过后的唯一幸存者,且浑身上下毫发无伤。在他参加遇难者追悼会之后,他在车窗上发现一张神秘便条,写道:“你这一生生过几次病?”
  不久,一个名叫伊利亚?普莱斯(Samuel L. Jackson 塞缪尔?杰克逊 饰)的黑人出现在大卫面前。和大卫不同的是,伊利亚天生手脚残废,脆弱不堪。喜爱漫画的伊利亚认定大卫就是书中那种具有超自然能力的超人。懵懂的大卫开始在伊利亚的引导下认识自身的能力……
  1. Video
  2. ID                                       : 1
  3. Format                                   : AVC
  4. Format/Info                              : Advanced Video Codec
  5. Format profile                           : High@L4
  6. Format settings, CABAC                   : Yes
  7. Format settings, ReFrames                : 4 frames
  8. Codec ID                                 : V_MPEG4/ISO/AVC
  9. Duration                                 : 1h 46mn
  10. Bit rate                                 : 9 149 Kbps
  11. Width                                    : 1 920 pixels
  12. Height                                   : 816 pixels
  13. Display aspect ratio                     : 2.35:1
  14. Frame rate mode                          : Constant
  15. Frame rate                               : 23.976 fps
  16. Color space                              : YUV
  17. Chroma subsampling                       : 4:2:0
  18. Bit depth                                : 8 bits
  19. Scan type                                : Progressive
  20. Bits/(Pixel*Frame)                       : 0.244
  21. Stream size                              : 6.66 GiB (84%)
  22. Writing library                          : x264 core 59 r839M 27c3071
  23. Encoding settings                        : cabac=1 / ref=4 / deblock=1:-1:-1 / analyse=0x3:0x113 / me=umh / subme=7 / me-prepass=0 / brdo=1 / mixed_ref=1 / me_range=16 / chroma_me=1 / trellis=1 / 8x8dct=1 / cqm=0 / deadzone=21,11 / chroma_qp_offset=0 / threads=6 / nr=0 / decimate=0 / mbaff=0 / fgo=10 / bframes=8 / b_pyramid=1 / b_adapt=1 / b_bias=0 / direct=1 / wpredb=1 / bime=1 / keyint=250 / keyint_min=25 / scenecut=40(pre) / rc=2pass / bitrate=9149 / ratetol=2.0 / rceq=\'blurCplx^(1-qComp)\' / qcomp=1.00 / qpmin=10 / qpmax=51 / qpstep=4 / cplxblur=20.0 / qblur=0.5 / vbv_maxrate=38000 / vbv_bufsize=30000 / ip_ratio=1.40 / pb_ratio=1.15 / aq=2:1.00
  24. Language                                 : English
  25. Default                                  : Yes
  26. Forced                                   : No

  27. Audio
  28. ID                                       : 2
  29. Format                                   : DTS
  30. Format/Info                              : Digital Theater Systems
  31. Mode                                     : 16
  32. Format settings, Endianness              : Big
  33. Codec ID                                 : A_DTS
  34. Duration                                 : 1h 46mn
  35. Bit rate mode                            : Constant
  36. Bit rate                                 : 1 510 Kbps
  37. Channel(s)                               : 6 channels
  38. Channel positions                        : Front: L C R, Side: L R, LFE
  39. Sampling rate                            : 48.0 KHz
  40. Bit depth                                : 24 bits
  41. Compression mode                         : Lossy
  42. Stream size                              : 1.13 GiB (14%)
  43. Language                                 : English
  44. Default                                  : Yes
  45. Forced                                   : No

  46. Text #1
  47. ID                                       : 3
  48. Format                                   : UTF-8
  49. Codec ID                                 : S_TEXT/UTF8
  50. Codec ID/Info                            : UTF-8 Plain Text
  51. Language                                 : English
  52. Default                                  : No
  53. Forced                                   : No

  54. Text #2
  55. ID                                       : 4
  56. Format                                   : UTF-8
  57. Codec ID                                 : S_TEXT/UTF8
  58. Codec ID/Info                            : UTF-8 Plain Text
  59. Language                                 : Dutch
  60. Default                                  : No
  61. Forced                                   : No

  62. Text #3
  63. ID                                       : 5
  64. Format                                   : UTF-8
  65. Codec ID                                 : S_TEXT/UTF8
  66. Codec ID/Info                            : UTF-8 Plain Text
  67. Language                                 : French
  68. Default                                  : No
  69. Forced                                   : No

  70. Text #4
  71. ID                                       : 6
  72. Format                                   : UTF-8
  73. Codec ID                                 : S_TEXT/UTF8
  74. Codec ID/Info                            : UTF-8 Plain Text
  75. Language                                 : Greek
  76. Default                                  : No
  77. Forced                                   : No

  78. Menu
  79. 00:00:00.000                             : en:00:00:00.000
  80. 00:08:44.023                             : en:00:08:44.023
  81. 00:09:50.673                             : en:00:09:50.673
  82. 00:14:57.063                             : en:00:14:57.063
  83. 00:16:30.948                             : en:00:16:30.948
  84. 00:20:57.339                             : en:00:20:57.339
  85. 00:25:04.920                             : en:00:25:04.920
  86. 00:32:26.069                             : en:00:32:26.069
  87. 00:34:37.158                             : en:00:34:37.158
  88. 00:36:28.395                             : en:00:36:28.395
  89. 00:40:55.703                             : en:00:40:55.703
  90. 00:43:22.975                             : en:00:43:22.975
  91. 00:49:59.038                             : en:00:49:59.038
  92. 00:54:53.040                             : en:00:54:53.040
  93. 00:56:57.414                             : en:00:56:57.414
  94. 01:00:00.096                             : en:01:00:00.096
  95. 01:02:51.393                             : en:01:02:51.393
  96. 01:04:35.038                             : en:01:04:35.038
  97. 01:07:37.262                             : en:01:07:37.262
  98. 01:12:16.832                             : en:01:12:16.832
  99. 01:13:28.446                             : en:01:13:28.446
  100. 01:17:33.315                             : en:01:17:33.315
  101. 01:22:19.685                             : en:01:22:19.685
  102. 01:31:38.618                             : en:01:31:38.618
  103. 01:33:13.588                             : en:01:33:13.588
  104. 01:35:53.081                             : en:01:35:53.081
  105. 01:37:49.989                             : en:01:37:49.989
  106. 01:42:15.463                             : en:01:42:15.463
  107. 01:46:37.391                             : en:01:46:37.391
  108. 01:46:38.809                             : en:01:46:38.809
复制代码

不死劫/惊心动魄 Unbreakable.2000.1080p.BluRay.x264.DTS-FGT 7.94GB-2.jpg
不死劫/惊心动魄 Unbreakable.2000.1080p.BluRay.x264.DTS-FGT 7.94GB-3.jpg
不死劫/惊心动魄 Unbreakable.2000.1080p.BluRay.x264.DTS-FGT 7.94GB-4.jpg







回复

使用道具 举报

 成长值: 3505

发表于 2020-7-1 10:32:36 | 显示全部楼层
谢谢楼主无私分享。
回复 支持 反对

使用道具 举报

发表于 2020-7-1 14:55:07 | 显示全部楼层

既然你诚信诚意的推荐了,那我就勉为其难的看看吧!蓝光电影网不走平凡路。
回复 支持 反对

使用道具 举报

发表于 2020-7-2 00:29:31 | 显示全部楼层

楼主太厉害了!楼主,电影应该很好看我觉得蓝光电影网[/color真是个好地方!
回复 支持 反对

使用道具 举报

懒得打字嘛,点击右侧快捷回复 【右侧内容,后台自定义】
您需要登录后才可以回帖 登录 | 立即加入

本版积分规则

上个主题 下个主题 快速回复 收藏帖子 返回列表 客服中心 搜索
现在加入蓝光电影网,注册一个账号

手机版|小黑屋| 蓝光电影网  |网站地图

Copyright © 2015-2019 Comsenz Inc.  Template by 蓝光电影论坛 All Rights Reserved.

Powered by 蓝光电影网 X3.4

特别声明:本站所有资源均由网上收集而来,版权归原影音公司所有,如果侵犯了你的权益,请通知我们,我们会及时删除侵权内容.

快速回复 返回顶部 返回列表