找回密码

蓝光电影网

查看: 120|回复: 2

[剧情] 神秘感染/7步成尸 Contracted.2013.1080p.BluRay.x264.DTS-FGT 7.32GB

[复制链接]

 成长值: 26755

发表于 2020-7-1 00:11:02 | 显示全部楼层 |阅读模式
神秘感染/7步成尸 Contracted.2013.1080p.BluRay.x264.DTS-FGT 7.32GB-1.png


译  名 神秘感染 / 7步成尸(港) / 七步成尸 / 尸控一夜情(台) / 感染 / 神秘接触
片  名 Contracted
年  代 2013
产  地 美国
类  别 剧情 / 惊悚 / 恐怖
语  言 英语
上映日期 2013-11-22(瑞士)
IMDb评分  5.3/10 from 13952 users
IMDb链接  https://www.imdb.com/title/tt2281159
豆瓣评分 5.9/10 from 9142 users
豆瓣链接 https://movie.douban.com/subject/21348112/
片  长 84分钟
导  演 Eric England
编  剧 Eric England
主  演 娜嘉拉·汤森德 Najarra Townsend
       爱丽丝·麦克唐纳 Alice Macdonald
       查理·孔茨 Charley Koontz
       西蒙·巴雷特 Simon Barrett
       Caroline Williams
       Katie Stegeman
       Matt Mercer
       Dave Holmes
       Andre Boyer


标  签 丧尸 | 恐怖 | 惊悚 | 病毒 | 美国 | 血腥 | 感染 | 美国电影

简  介  

  萨曼莎(娜嘉拉·汤森德 Najarra Townsend 饰)原本约好和女友妮姬(Katie Stegeman 饰)一起去夜店消遣,她见到了朋友爱丽丝(爱丽丝·麦克唐纳Alice Macdonald 饰),喜欢自己的男孩莱利(Matt Mercer 饰),却独独没有看到妮姬。酒过三巡,落寞的萨曼莎自饮自酌,谁知却遭遇了一名男子的暴行。令人不愿回忆的一夜过后,萨曼莎重新回到烦恼多多的生活中。谁知未过几天,她便发现出现在身体上上的种种异状,莫名的血迹,恐怖刺耳的幻听,眼睛充血,皮肤出现青斑,牙齿脱落。
  从爱丽丝口中得知,对她施暴的男人似乎是警方正全力追查的一个极度危险的人物。几天前还如花似玉的女孩,而今变成了一副恐怖的死尸模样……
  1. Video
  2. ID                                       : 1
  3. Format                                   : AVC
  4. Format/Info                              : Advanced Video Codec
  5. Format profile                           : High@L4
  6. Format settings, CABAC                   : Yes
  7. Format settings, ReFrames                : 4 frames
  8. Codec ID                                 : V_MPEG4/ISO/AVC
  9. Duration                                 : 1h 23mn
  10. Bit rate                                 : 10.7 Mbps
  11. Nominal bit rate                         : 11.5 Mbps
  12. Width                                    : 1 920 pixels
  13. Height                                   : 816 pixels
  14. Display aspect ratio                     : 2.35:1
  15. Frame rate mode                          : Constant
  16. Frame rate                               : 23.976 fps
  17. Color space                              : YUV
  18. Chroma subsampling                       : 4:2:0
  19. Bit depth                                : 8 bits
  20. Scan type                                : Progressive
  21. Bits/(Pixel*Frame)                       : 0.286
  22. Stream size                              : 6.29 GiB (86%)
  23. Writing library                          : x264 core 144 r96 40bb568
  24. Encoding settings                        : cabac=1 / ref=4 / deblock=1:-2:-2 / analyse=0x3:0x113 / me=umh / subme=7 / psy=1 / psy_rd=1.00:0.15 / mixed_ref=1 / me_range=16 / chroma_me=1 / trellis=1 / 8x8dct=1 / cqm=0 / deadzone=21,11 / fast_pskip=1 / chroma_qp_offset=-3 / threads=12 / lookahead_threads=3 / sliced_threads=0 / nr=0 / decimate=1 / interlaced=0 / bluray_compat=0 / constrained_intra=0 / bframes=3 / b_pyramid=2 / b_adapt=2 / b_bias=0 / direct=3 / weightb=1 / open_gop=0 / weightp=2 / keyint=250 / keyint_min=25 / scenecut=40 / intra_refresh=0 / rc_lookahead=50 / rc=abr / mbtree=1 / bitrate=11500 / ratetol=1.0 / qcomp=0.60 / qpmin=0 / qpmax=69 / qpstep=4 / vbv_maxrate=31250 / vbv_bufsize=31250 / nal_hrd=none / filler=0 / ip_ratio=1.40 / aq=1:1.00
  25. Language                                 : English
  26. Default                                  : Yes
  27. Forced                                   : No

  28. Audio
  29. ID                                       : 2
  30. Format                                   : DTS
  31. Format/Info                              : Digital Theater Systems
  32. Mode                                     : 16
  33. Format settings, Endianness              : Big
  34. Codec ID                                 : A_DTS
  35. Duration                                 : 1h 23mn
  36. Bit rate mode                            : Constant
  37. Bit rate                                 : 1 509 Kbps
  38. Channel(s)                               : 6 channels
  39. Channel positions                        : Front: L C R, Side: L R, LFE
  40. Sampling rate                            : 48.0 KHz
  41. Bit depth                                : 16 bits
  42. Compression mode                         : Lossy
  43. Stream size                              : 906 MiB (12%)
  44. Language                                 : English
  45. Default                                  : Yes
  46. Forced                                   : No

  47. Menu
  48. 00:00:00.000                             : en:Chapter 01
  49. 00:12:26.620                             : en:Chapter 02
  50. 00:19:12.651                             : en:Chapter 03
  51. 00:23:33.620                             : en:Chapter 04
  52. 00:28:50.437                             : en:Chapter 05
  53. 00:38:28.097                             : en:Chapter 06
  54. 00:44:17.321                             : en:Chapter 07
  55. 00:49:08.070                             : en:Chapter 08
  56. 00:55:17.814                             : en:Chapter 09
  57. 01:04:03.548                             : en:Chapter 10
  58. 01:09:25.244                             : en:Chapter 11
  59. 01:16:55.110                             : en:Chapter 12
  60. 01:18:58.108                             : en:Chapter 13
复制代码

神秘感染/7步成尸 Contracted.2013.1080p.BluRay.x264.DTS-FGT 7.32GB-2.jpg
神秘感染/7步成尸 Contracted.2013.1080p.BluRay.x264.DTS-FGT 7.32GB-3.jpg
神秘感染/7步成尸 Contracted.2013.1080p.BluRay.x264.DTS-FGT 7.32GB-4.jpg
神秘感染/7步成尸 Contracted.2013.1080p.BluRay.x264.DTS-FGT 7.32GB-5.jpg
神秘感染/7步成尸 Contracted.2013.1080p.BluRay.x264.DTS-FGT 7.32GB-6.jpg
神秘感染/7步成尸 Contracted.2013.1080p.BluRay.x264.DTS-FGT 7.32GB-7.jpg








回复

使用道具 举报

发表于 2020-7-1 00:26:10 | 显示全部楼层
Thanks for sharing
回复 支持 反对

使用道具 举报

 成长值: 3505

发表于 2020-7-1 10:35:41 | 显示全部楼层
谢谢楼主无私分享。
回复 支持 反对

使用道具 举报

懒得打字嘛,点击右侧快捷回复 【右侧内容,后台自定义】
您需要登录后才可以回帖 登录 | 立即加入

本版积分规则

上个主题 下个主题 快速回复 收藏帖子 返回列表 客服中心 搜索
现在加入蓝光电影网,注册一个账号

手机版|小黑屋| 蓝光电影网  |网站地图

Copyright © 2015-2019 Comsenz Inc.  Template by 蓝光电影论坛 All Rights Reserved.

Powered by 蓝光电影网 X3.4

特别声明:本站所有资源均由网上收集而来,版权归原影音公司所有,如果侵犯了你的权益,请通知我们,我们会及时删除侵权内容.

快速回复 返回顶部 返回列表