找回密码

蓝光电影网

查看: 151|回复: 10

[剧情] 蒸发密令/毁灭者 Eraser.1996.1080p.BluRay.x264.DTS-FGT 9.68GB

[复制链接]

 成长值: 26755

发表于 2020-6-30 23:59:43 | 显示全部楼层 |阅读模式
蒸发密令/毁灭者 Eraser.1996.1080p.BluRay.x264.DTS-FGT 9.68GB-1.png


译  名 蒸发密令 / 毁灭者 / 魔鬼毁灭者
片  名 Eraser
年  代 1996
产  地 美国
类  别 剧情 / 动作 / 悬疑 / 犯罪
语  言 英语
上映日期 1996-06-21(美国)
IMDb评分  6.1/10 from 101317 users
IMDb链接  https://www.imdb.com/title/tt0116213
豆瓣评分 7.3/10 from 24318 users
豆瓣链接 https://movie.douban.com/subject/1298635/
片  长 115分钟
导  演 查克·拉塞尔 Chuck Russell
编  剧 Tony Puryear / 沃伦·格林 Walon Green / Michael S. Chernuchin
主  演 阿诺·施瓦辛格 Arnold Schwarzenegger
       詹姆斯·肯恩 James Caan
       凡妮莎·威廉斯 Vanessa Williams
       詹姆斯·柯本 James Coburn
       罗伯特·帕斯托莱利 Robert Pastorelli
       詹姆斯·克伦威尔 James Cromwell
       丹尼·努齐 Danny Nucci
       Andy Romano
       尼克·齐兰德 Nick Chinlund
       迈克尔·帕帕约翰 Michael Papajohn
       乔·维特雷利 Joe Viterelli
       马克·罗斯顿 Mark Rolston
       约翰·斯拉特里 John Slattery
       Robert Miranda
       罗马·玛菲娅 Roma Maffia
       Tony Longo
       格里贝克尔 Gerry Becker
       John Snyder
       梅罗拉·沃特斯 Melora Walters
       奥莱克·克鲁帕 Olek Krupa
       Cylk Cozart
       K.托德·弗里曼 K. Todd Freeman
       罗科·西斯托 Rocco Sisto
       Gerald Berns
       斯蒂芬·福特 Steven Ford
       伊斯梅尔·伊斯特·卡尔罗 Ismael 'East' Carlo
       Tommy J. Huff
       Rick Batalla
       Michael Gregory
       帕特里克·基尔帕特里克 Patrick Kilpatrick
       斯基普·萨德思 Skipp Sudduth
       Denis Forest
       史文-欧尔·托尔森 Sven-Ole Thorsen


标  签 动作 | 美国 | 科幻 | 1996 | 犯罪 | 特工 | 剧情 | 经典

简  介  

  艾伦(范妮莎?L?威廉姆斯 Vanessa Williams 饰)是美国最大武器武器制造公司西历公司的高级职员,她慢慢发现了这加公司的一些黑幕――该公司生产了一种明令禁止的武器并在黑市交易。FBI利用艾伦获得了一些证据,艾伦成了本案的关键证人。鉴于这间公司的势力,证人保护中心派出了法警约翰(阿诺?施瓦辛格 Arnold Schwarzenegger 饰)前往保护艾伦。
  当约翰赶到艾伦家时,杀手正在谋杀艾伦。约翰救出了惊魂未定的艾伦,并告诉了她现在情况。安顿好艾伦后,约翰前往酒吧和同伴罗伯特(詹姆斯?凯恩 James Caan 饰)见面,罗伯特告诉约翰因为保护证人的计划泄漏,要重新安排,并要求约翰一起行动。向来都是独立完成任务的约翰起了疑心,他慢慢开始觉得这件事背后的势力并不简单。

获奖情况  

  第69届奥斯卡金像奖(1997)
  最佳音效剪辑(提名) 阿兰·罗伯特·默里 / 巴布·亚斯曼
  1. Video
  2. ID                                       : 1
  3. Format                                   : AVC
  4. Format/Info                              : Advanced Video Codec
  5. Format profile                           : High@L4
  6. Format settings                          : CABAC / 4 Ref Frames
  7. Format settings, CABAC                   : Yes
  8. Format settings, Reference frames        : 4 frames
  9. Codec ID                                 : V_MPEG4/ISO/AVC
  10. Duration                                 : 1 h 54 min
  11. Bit rate                                 : 10.4 Mb/s
  12. Width                                    : 1 920 pixels
  13. Height                                   : 800 pixels
  14. Display aspect ratio                     : 2.40:1
  15. Frame rate mode                          : Constant
  16. Frame rate                               : 23.976 FPS
  17. Color space                              : YUV
  18. Chroma subsampling                       : 4:2:0
  19. Bit depth                                : 8 bits
  20. Scan type                                : Progressive
  21. Bits/(Pixel*Frame)                       : 0.281
  22. Stream size                              : 8.28 GiB (86%)
  23. Writing library                          : x264 core 61 r951M 445d87e
  24. Encoding settings                        : cabac=1 / ref=4 / deblock=1:-2:-2 / analyse=0x3:0x113 / me=umh / subme=7 / psy_rd=1.0:0.0 / brdo=1 / mixed_ref=1 / me_range=16 / chroma_me=1 / trellis=0 / 8x8dct=1 / cqm=0 / deadzone=6,4 / chroma_qp_offset=-2 / threads=6 / nr=0 / decimate=0 / mbaff=0 / bframes=3 / b_pyramid=1 / b_adapt=1 / b_bias=0 / direct=3 / wpredb=1 / bime=1 / keyint=250 / keyint_min=25 / scenecut=40(pre) / rc=crf / crf=21.0 / rceq='blurCplx^(1-qComp)' / qcomp=1.00 / qpmin=10 / qpmax=51 / qpstep=4 / vbv_maxrate=38000 / vbv_bufsize=30000 / ip_ratio=1.40 / pb_ratio=1.30 / aq=2:1.00
  25. Language                                 : English
  26. Default                                  : Yes
  27. Forced                                   : No

  28. Audio
  29. ID                                       : 2
  30. Format                                   : DTS
  31. Format/Info                              : Digital Theater Systems
  32. Codec ID                                 : A_DTS
  33. Duration                                 : 1 h 54 min
  34. Bit rate mode                            : Constant
  35. Bit rate                                 : 1 510 kb/s
  36. Channel(s)                               : 6 channels
  37. Channel layout                           : C L R Ls Rs LFE
  38. Sampling rate                            : 48.0 kHz
  39. Frame rate                               : 93.750 FPS (512 SPF)
  40. Bit depth                                : 24 bits
  41. Compression mode                         : Lossy
  42. Stream size                              : 1.21 GiB (12%)
  43. Language                                 : English
  44. Default                                  : Yes
  45. Forced                                   : No

  46. Text
  47. ID                                       : 3
  48. Format                                   : UTF-8
  49. Codec ID                                 : S_TEXT/UTF8
  50. Codec ID/Info                            : UTF-8 Plain Text
  51. Language                                 : English
  52. Default                                  : Yes
  53. Forced                                   : No
复制代码

蒸发密令/毁灭者 Eraser.1996.1080p.BluRay.x264.DTS-FGT 9.68GB-2.jpg
蒸发密令/毁灭者 Eraser.1996.1080p.BluRay.x264.DTS-FGT 9.68GB-3.jpg
蒸发密令/毁灭者 Eraser.1996.1080p.BluRay.x264.DTS-FGT 9.68GB-4.jpg
蒸发密令/毁灭者 Eraser.1996.1080p.BluRay.x264.DTS-FGT 9.68GB-5.jpg
蒸发密令/毁灭者 Eraser.1996.1080p.BluRay.x264.DTS-FGT 9.68GB-6.jpg








回复

使用道具 举报

发表于 2020-7-1 09:49:31 | 显示全部楼层

这东西我收了!谢谢楼主!蓝光电影网真好!
回复 支持 反对

使用道具 举报

 成长值: 3505

发表于 2020-7-1 10:41:21 | 显示全部楼层
谢谢楼主无私分享。
回复 支持 反对

使用道具 举报

发表于 2020-7-1 12:28:20 | 显示全部楼层

感谢楼主的无私分享!要想蓝光电影网好 就靠你我他
回复 支持 反对

使用道具 举报

已抛锚 成长值: 3245

发表于 2020-7-1 12:34:03 | 显示全部楼层
百看不厌的经典电影,以前评价一般,现在烂片多了,这些就成了经典电影
回复 支持 反对

使用道具 举报

发表于 2020-7-1 13:36:14 | 显示全部楼层

我看不错噢 谢谢楼主!蓝光电影网越来越好!
回复 支持 反对

使用道具 举报

发表于 2020-7-1 15:50:44 | 显示全部楼层

楼主太厉害了!楼主,电影应该很好看我觉得蓝光电影网真是个好地方!
回复 支持 反对

使用道具 举报

发表于 2020-7-1 19:07:01 | 显示全部楼层
楼主发贴辛苦了,谢谢楼主分享!我觉得蓝光电影网是注册对了!
回复 支持 反对

使用道具 举报

发表于 2020-7-1 20:22:20 | 显示全部楼层
楼主发贴辛苦了,谢谢楼主分享!我觉得蓝光电影网是注册对了!
回复 支持 反对

使用道具 举报

发表于 2020-7-1 20:29:50 | 显示全部楼层
楼主发贴辛苦了,谢谢楼主分享!我觉得蓝光电影网是注册对了!
回复 支持 反对

使用道具 举报

懒得打字嘛,点击右侧快捷回复 【右侧内容,后台自定义】
您需要登录后才可以回帖 登录 | 立即加入

本版积分规则

上个主题 下个主题 快速回复 收藏帖子 返回列表 客服中心 搜索
现在加入蓝光电影网,注册一个账号

手机版|小黑屋| 蓝光电影网  |网站地图

Copyright © 2015-2019 Comsenz Inc.  Template by 蓝光电影论坛 All Rights Reserved.

Powered by 蓝光电影网 X3.4

特别声明:本站所有资源均由网上收集而来,版权归原影音公司所有,如果侵犯了你的权益,请通知我们,我们会及时删除侵权内容.

快速回复 返回顶部 返回列表