找回密码

蓝光电影网

查看: 220|回复: 8

[剧情] 生日 Birthday.2019.1080p.BluRay.x264-GiMCHi 10.14GB

[复制链接]

 成长值: 26140

发表于 2020-5-23 23:11:11 | 显示全部楼层 |阅读模式
p2593166446.jpg

译  名 生日 / Birthday / 没有你的生日(台) / 没有你的生日会(港) / 生日宴会 / 礼物 / ????
片  名 ??
年  代 2019
产  地 韩国
类  别 剧情
语  言 韩语
上映日期 2019-04-03(韩国)
IMDb评分  6.9/10 from 141 users
IMDb链接  https://www.imdb.com/title/tt10248334
豆瓣评分 7.6/10 from 4572 users
豆瓣链接 https://movie.douban.com/subject/27887836/
片  长 120分钟
导  演 李钟言 Jong-eon Lee
编  剧 李钟言 Jong-eon Lee
主  演 薛耿求 Kyung-gu Sol
       全度妍 Do-yeon Jeon
       金宝敏 Bo-min Kim
       尹灿荣 Chan-young Yoon
       金秀珍 Soo Jin Kim
       李凤莲 Lee Bong-ryeon
       朴钟焕 Jong-hwan Park
       权昭贤 So-hyun Kwon
       成侑彬 Yoo-bin Sung
       汤峻相 Joon-sang Tang
       申文成 Mun-sung Shin


标  签 韩国 | 世越号事件 | 家庭 | 真实事件改编 | 灾难 | 2019 | 温情 | 剧情

简  介  

  该片由李钟言执导,讲述了在岁月号事故之后,遗属们和生存下来的人们克服伤痛并治愈的故事。

获奖情况  

  第40届韩国电影青龙奖(2019)
  最佳男主角(提名) 薛景求
  最佳女主角(提名) 全度妍
  最佳新人导演(提名) 李钟言

  第56届百想艺术大赏(2020)
  电影类 最佳导演(提名) 李钟言
  电影类 最佳女主角(提名) 全度妍

  第55届百想艺术大赏(2019)
  电影类 最佳新人导演(提名) 李钟言
  1. Video
  2. ID                                       : 1
  3. Format                                   : AVC
  4. Format/Info                              : Advanced Video Codec
  5. Format profile                           : High@L4
  6. Format settings                          : CABAC / 4 Ref Frames
  7. Format settings, CABAC                   : Yes
  8. Format settings, Reference frames        : 4 frames
  9. Codec ID                                 : V_MPEG4/ISO/AVC
  10. Duration                                 : 1 h 59 min
  11. Bit rate                                 : 8 497 kb/s
  12. Width                                    : 1 920 pixels
  13. Height                                   : 960 pixels
  14. Display aspect ratio                     : 2.000
  15. Frame rate mode                          : Constant
  16. Frame rate                               : 23.976 (24000/1001/189150) FPS
  17. Color space                              : YUV
  18. Chroma subsampling                       : 4:2:0
  19. Bit depth                                : 8 bits
  20. Scan type                                : Progressive
  21. Bits/(Pixel*Frame)                       : 0.192
  22. Stream size                              : 7.12 GiB (70%)
  23. Writing library                          : x264 core 160 r3000 33f9e14
  24. Encoding settings                        : cabac=1 / ref=4 / deblock=1:-3:-3 / analyse=0x3:0x133 / me=umh / subme=9 / psy=1 / psy_rd=1.00:0.00 / mixed_ref=1 / me_range=16 / chroma_me=1 / trellis=2 / 8x8dct=1 / cqm=0 / deadzone=21,11 / fast_pskip=1 / chroma_qp_offset=-2 / threads=16 / lookahead_threads=1 / sliced_threads=0 / nr=0 / decimate=1 / interlaced=0 / bluray_compat=0 / constrained_intra=0 / bframes=3 / b_pyramid=2 / b_adapt=2 / b_bias=0 / direct=3 / weightb=1 / open_gop=0 / weightp=2 / keyint=240 / keyint_min=23 / scenecut=40 / intra_refresh=0 / rc_lookahead=60 / rc=crf / mbtree=1 / crf=17.0 / qcomp=0.60 / qpmin=0 / qpmax=69 / qpstep=4 / ip_ratio=1.40 / aq=1:1.00
  25. Language                                 : English
  26. Default                                  : Yes
  27. Forced                                   : No

  28. Audio #1
  29. ID                                       : 2
  30. Format                                   : DTS XLL
  31. Format/Info                              : Digital Theater Systems
  32. Commercial name                          : DTS-HD Master Audio
  33. Codec ID                                 : A_DTS
  34. Duration                                 : 1 h 59 min
  35. Bit rate mode                            : Variable
  36. Bit rate                                 : 3 482 kb/s
  37. Channel(s)                               : 6 channels
  38. Channel layout                           : C L R Ls Rs LFE
  39. Sampling rate                            : 48.0 kHz
  40. Frame rate                               : 93.750 FPS (512 SPF)
  41. Bit depth                                : 24 bits
  42. Compression mode                         : Lossless
  43. Stream size                              : 2.92 GiB (29%)
  44. Title                                    : Korean
  45. Language                                 : Korean
  46. Default                                  : Yes
  47. Forced                                   : No

  48. Audio #2
  49. ID                                       : 3
  50. Format                                   : AAC LC
  51. Format/Info                              : Advanced Audio Codec Low Complexity
  52. Codec ID                                 : A_AAC-2
  53. Duration                                 : 1 h 59 min
  54. Bit rate                                 : 103 kb/s
  55. Channel(s)                               : 2 channels
  56. Channel layout                           : L R
  57. Sampling rate                            : 48.0 kHz
  58. Frame rate                               : 46.875 FPS (1024 SPF)
  59. Compression mode                         : Lossy
  60. Delay relative to video                  : 9 ms
  61. Stream size                              : 88.6 MiB (1%)
  62. Title                                    : Commentary
  63. Language                                 : Korean
  64. Default                                  : No
  65. Forced                                   : No

  66. Text #1
  67. ID                                       : 4
  68. Format                                   : PGS
  69. Muxing mode                              : zlib
  70. Codec ID                                 : S_HDMV/PGS
  71. Codec ID/Info                            : Picture based subtitle format used on BDs/HD-DVDs
  72. Duration                                 : 1 h 59 min
  73. Bit rate                                 : 18.4 kb/s
  74. Count of elements                        : 2273
  75. Stream size                              : 15.7 MiB (0%)
  76. Title                                    : English
  77. Language                                 : English
  78. Default                                  : Yes
  79. Forced                                   : No

  80. Text #2
  81. ID                                       : 5
  82. Format                                   : PGS
  83. Muxing mode                              : zlib
  84. Codec ID                                 : S_HDMV/PGS
  85. Codec ID/Info                            : Picture based subtitle format used on BDs/HD-DVDs
  86. Duration                                 : 1 h 55 min
  87. Bit rate                                 : 18.2 kb/s
  88. Count of elements                        : 2173
  89. Stream size                              : 15.0 MiB (0%)
  90. Title                                    : Korean
  91. Language                                 : Korean
  92. Default                                  : No
  93. Forced                                   : No

  94. Menu #1
  95. 00:00:00.000                             : en:Chapter 01
  96. 00:06:17.961                             : en:Chapter 02
  97. 00:13:58.254                             : en:Chapter 03
  98. 00:22:51.787                             : en:Chapter 04
  99. 00:30:54.227                             : en:Chapter 05
  100. 00:35:26.833                             : en:Chapter 06
  101. 00:42:56.115                             : en:Chapter 07
  102. 00:46:57.314                             : en:Chapter 08
  103. 00:54:54.374                             : en:Chapter 09
  104. 01:04:39.626                             : en:Chapter 10
  105. 01:09:54.982                             : en:Chapter 11
  106. 01:17:50.165                             : en:Chapter 12
  107. 01:23:10.736                             : en:Chapter 13
  108. 01:33:22.972                             : en:Chapter 14
  109. 01:42:13.461                             : en:Chapter 15
  110. 01:49:56.882                             : en:Chapter 16
  111. 01:54:48.465                             : en:Chapter 17

  112. Menu #2
  113. 00:00:00.054                             : en:Chapter 01
复制代码

生日 Birthday.2019.1080p.BluRay.x264-GiMCHi 10.14GB-1.png






回复

使用道具 举报

发表于 7 天前 | 显示全部楼层
感謝分享這影片
回复 支持 反对

使用道具 举报

发表于 7 天前 | 显示全部楼层
Thanks for sharing
回复 支持 反对

使用道具 举报

发表于 7 天前 | 显示全部楼层
楼主发贴辛苦了,谢谢楼主分享!我觉得蓝光电影网是注册对了!
回复 支持 反对

使用道具 举报

发表于 7 天前 | 显示全部楼层
楼主发贴辛苦了,谢谢楼主分享!我觉得蓝光电影网是注册对了!
回复 支持 反对

使用道具 举报

已抛锚 成长值: 3385

发表于 7 天前 | 显示全部楼层
楼主发贴辛苦了,谢谢楼主分享!我觉得蓝光电影网是注册对了!
回复 支持 反对

使用道具 举报

发表于 7 天前 | 显示全部楼层

这个帖子不回对不起自己!我想我是一天也不能离开蓝光电影网
回复 支持 反对

使用道具 举报

发表于 7 天前 | 显示全部楼层

期待,谢谢分享!!!
回复 支持 反对

使用道具 举报

发表于 7 天前 | 显示全部楼层

我看不错噢 谢谢楼主!蓝光电影网越来越好!
回复 支持 反对

使用道具 举报

懒得打字嘛,点击右侧快捷回复 【右侧内容,后台自定义】
您需要登录后才可以回帖 登录 | 立即加入

本版积分规则

现在加入蓝光电影网,注册一个账号
上个主题 下个主题 快速回复 收藏帖子 返回列表 客服中心 搜索

手机版|小黑屋| 蓝光电影网 |网站地图 

Copyright © 2015-2019 Comsenz Inc.  Template by 蓝光电影论坛 All Rights Reserved.

Powered by 蓝光电影网 X3.4

特别声明:本站所有资源均由网上收集而来,版权归原影音公司所有,如果侵犯了你的权益,请通知我们,我们会及时删除侵权内容.

快速回复 返回顶部 返回列表