找回密码

蓝光电影网

查看: 266|回复: 5

[剧情] 欲望号快车/撞车 Crash.1996.UNRATED.1080p.BluRay.X264-AMIABLE 14.44GB

[复制链接]

 成长值: 26140

发表于 2020-5-23 18:13:23 | 显示全部楼层 |阅读模式
欲望号快车/撞车 Crash.1996.UNRATED.1080p.BluRay.X264-AMIABLE 14.44GB-1.png

译  名 欲望号快车 / 撞车 / 超速性追缉(台)
片  名 Crash
年  代 1996
产  地 加拿大 / 英国
类  别 剧情
语  言 英语 / 瑞典语
上映日期 1996-05-17(戛纳电影节) / 1996-10-04(加拿大)
IMDb评分  6.4/10 from 49760 users
IMDb链接  https://www.imdb.com/title/tt0115964
豆瓣评分 6.9/10 from 8212 users
豆瓣链接 https://movie.douban.com/subject/1292682/
片  长 100分钟
导  演 大卫·柯南伯格 David Cronenberg
编  剧 J·G·巴拉德 J.G. Ballard / 大卫·柯南伯格 David Cronenberg
主  演 詹姆斯·斯派德 James Spader
       霍利·亨特 Holly Hunter
       伊莱亚斯·科泰斯 Elias Koteas
       黛博拉·卡拉·安格 Deborah Kara Unger
       罗姗娜·阿奎特 Rosanna Arquette
       彼得·麦克内尔 Peter MacNeill
       Yolande Julian
       Cheryl Swarts
       朱达·卡茨 Judah Katz
       妮基·瓜达尼 Nicky Guadagni
       Ronn Sarosiak
       博伊德·班克斯 Boyd Banks
       Markus Parilo
       Alice Poon
       John Stoneham Jr.
       大卫·柯南伯格 David Cronenberg
       乔丹 Jordan


标  签 情色 | 加拿大 | 1996 | 剧情 | 英国 | 美国 | 惊悚 | 人性

简  介  

  电影制片人詹姆斯(James Spader 饰)沉迷于性事,在女友凯瑟琳之外尚有不少情人。一次开车回家的路上他与另一辆车相撞,詹姆斯腿部重伤,对面车中的夫妻两人则丈夫死亡妻子海伦(Holly Hunter 饰)负伤,詹姆斯在报废车场偶遇海伦,两人由此结识,不久海伦带他参观了由医生沃甘主持的撞车活动,这些爱好者热衷用真实的撞车还原某些事故,詹姆斯进入了一个匪夷所思的圈子。沃甘身份神秘,宣扬撞车是释放自我的有效途径,为此不惜以身犯险。随着詹姆斯与沃甘的交往不断加深,两人终于在车上发生了关系,而随后沃甘驾车撞击詹姆斯与凯瑟琳却致使自己死亡。詹姆斯大难不死后又驾驶者一辆废旧汽车撞向了凯瑟琳……
  本片获1996年加拿大吉尼奖导演奖等多项褒奖。

获奖情况  

  第49届戛纳电影节(1996)
  主竞赛单元 金棕榈奖(提名) 大卫·柯南伯格
  主竞赛单元 评审团特别奖 大卫·柯南伯格
  1. Video
  2. ID                                       : 1
  3. Format                                   : AVC
  4. Format/Info                              : Advanced Video Codec
  5. Format profile                           : High@L4
  6. Format settings                          : CABAC / 4 Ref Frames
  7. Format settings, CABAC                   : Yes
  8. Format settings, Reference frames        : 4 frames
  9. Codec ID                                 : V_MPEG4/ISO/AVC
  10. Duration                                 : 1 h 39 min
  11. Bit rate                                 : 18.6 Mb/s
  12. Width                                    : 1 800 pixels
  13. Height                                   : 1 080 pixels
  14. Display aspect ratio                     : 5:3
  15. Frame rate mode                          : Constant
  16. Frame rate                               : 23.976 (24000/1001/189150) FPS
  17. Color space                              : YUV
  18. Chroma subsampling                       : 4:2:0
  19. Bit depth                                : 8 bits
  20. Scan type                                : Progressive
  21. Bits/(Pixel*Frame)                       : 0.399
  22. Stream size                              : 13.0 GiB (90%)
  23. Writing library                          : x264 core 160 r3000 33f9e14
  24. Encoding settings                        : cabac=1 / ref=4 / deblock=1:-3:-3 / analyse=0x3:0x133 / me=umh / subme=9 / psy=1 / psy_rd=1.12:0.00 / mixed_ref=1 / me_range=32 / chroma_me=1 / trellis=2 / 8x8dct=1 / cqm=0 / deadzone=21,11 / fast_pskip=0 / chroma_qp_offset=-2 / threads=34 / lookahead_threads=2 / sliced_threads=0 / nr=0 / decimate=0 / interlaced=0 / bluray_compat=0 / constrained_intra=0 / bframes=3 / b_pyramid=2 / b_adapt=2 / b_bias=0 / direct=3 / weightb=1 / open_gop=0 / weightp=2 / keyint=250 / keyint_min=23 / scenecut=40 / intra_refresh=0 / rc=crf / mbtree=0 / crf=21.7 / qcomp=0.60 / qpmin=0 / qpmax=69 / qpstep=4 / ip_ratio=1.40 / pb_ratio=1.30 / aq=3:0.70
  25. Default                                  : Yes
  26. Forced                                   : No
  27. Color range                              : Limited
  28. Matrix coefficients                      : BT.709

  29. Audio
  30. ID                                       : 2
  31. Format                                   : DTS XLL
  32. Format/Info                              : Digital Theater Systems
  33. Commercial name                          : DTS-HD Master Audio
  34. Codec ID                                 : A_DTS
  35. Duration                                 : 1 h 39 min
  36. Bit rate mode                            : Variable
  37. Bit rate                                 : 2 090 kb/s
  38. Channel(s)                               : 6 channels
  39. Channel layout                           : C L R Ls Rs LFE
  40. Sampling rate                            : 48.0 kHz
  41. Frame rate                               : 93.750 FPS (512 SPF)
  42. Bit depth                                : 16 bits
  43. Compression mode                         : Lossless
  44. Stream size                              : 1.46 GiB (10%)
  45. Title                                    : DTS-HD MA 5.1
  46. Language                                 : English
  47. Default                                  : Yes
  48. Forced                                   : No

  49. Text #1
  50. ID                                       : 3
  51. Format                                   : UTF-8
  52. Codec ID                                 : S_TEXT/UTF8
  53. Codec ID/Info                            : UTF-8 Plain Text
  54. Duration                                 : 1 h 30 min
  55. Bit rate                                 : 21 b/s
  56. Count of elements                        : 434
  57. Stream size                              : 14.1 KiB (0%)
  58. Title                                    : Full SRT
  59. Language                                 : English
  60. Default                                  : No
  61. Forced                                   : No

  62. Text #2
  63. ID                                       : 4
  64. Format                                   : PGS
  65. Muxing mode                              : zlib
  66. Codec ID                                 : S_HDMV/PGS
  67. Codec ID/Info                            : Picture based subtitle format used on BDs/HD-DVDs
  68. Duration                                 : 1 h 30 min
  69. Bit rate                                 : 13.9 kb/s
  70. Count of elements                        : 868
  71. Stream size                              : 8.98 MiB (0%)
  72. Title                                    : Full
  73. Language                                 : English
  74. Default                                  : No
  75. Forced                                   : No

  76. Text #3
  77. ID                                       : 5
  78. Format                                   : PGS
  79. Muxing mode                              : zlib
  80. Codec ID                                 : S_HDMV/PGS
  81. Codec ID/Info                            : Picture based subtitle format used on BDs/HD-DVDs
  82. Duration                                 : 1 h 30 min
  83. Bit rate                                 : 16.0 kb/s
  84. Count of elements                        : 814
  85. Stream size                              : 10.3 MiB (0%)
  86. Title                                    : German
  87. Language                                 : German
  88. Default                                  : No
  89. Forced                                   : No

  90. Menu
  91. 00:00:00.000                             : en:Chapter 01
  92. 00:02:47.167                             : en:Chapter 02
  93. 00:06:46.489                             : en:Chapter 03
  94. 00:10:59.659                             : en:Chapter 04
  95. 00:16:07.967                             : en:Chapter 05
  96. 00:20:09.208                             : en:Chapter 06
  97. 00:25:22.604                             : en:Chapter 07
  98. 00:33:53.031                             : en:Chapter 08
  99. 00:36:54.212                             : en:Chapter 09
  100. 00:40:40.438                             : en:Chapter 10
  101. 00:50:50.047                             : en:Chapter 11
  102. 00:58:03.480                             : en:Chapter 12
  103. 01:04:38.875                             : en:Chapter 13
  104. 01:11:25.281                             : en:Chapter 14
  105. 01:17:03.619                             : en:Chapter 15
  106. 01:24:38.073                             : en:Chapter 16
  107. 01:30:27.422                             : en:Chapter 17
  108. 01:36:13.768                             : en:Chapter 18
复制代码

欲望号快车/撞车 Crash.1996.UNRATED.1080p.BluRay.X264-AMIABLE 14.44GB-2.png






回复

使用道具 举报

发表于 7 天前 | 显示全部楼层
Thanks for sharing
回复 支持 反对

使用道具 举报

发表于 7 天前 | 显示全部楼层

这东西我收了!谢谢楼主!蓝光电影网真好!
回复 支持 反对

使用道具 举报

发表于 7 天前 | 显示全部楼层
楼主发贴辛苦了,谢谢楼主分享!我觉得蓝光电影网是注册对了!
回复 支持 反对

使用道具 举报

发表于 7 天前 | 显示全部楼层
楼主发贴辛苦了,谢谢楼主分享!我觉得蓝光电影网是注册对了!
回复 支持 反对

使用道具 举报

发表于 6 天前 | 显示全部楼层
xiexie楼主分享!
回复 支持 反对

使用道具 举报

懒得打字嘛,点击右侧快捷回复 【右侧内容,后台自定义】
您需要登录后才可以回帖 登录 | 立即加入

本版积分规则

现在加入蓝光电影网,注册一个账号
上个主题 下个主题 快速回复 收藏帖子 返回列表 客服中心 搜索

手机版|小黑屋| 蓝光电影网 |网站地图 

Copyright © 2015-2019 Comsenz Inc.  Template by 蓝光电影论坛 All Rights Reserved.

Powered by 蓝光电影网 X3.4

特别声明:本站所有资源均由网上收集而来,版权归原影音公司所有,如果侵犯了你的权益,请通知我们,我们会及时删除侵权内容.

快速回复 返回顶部 返回列表