找回密码

蓝光电影网

查看: 225|回复: 3

[剧情] 圣女贞德:监狱篇 Joan.the.Maid.2.The.Prisons.1994.1080p.BluRay.x264-DEPTH 22.40GB

[复制链接]

 成长值: 26140

发表于 2020-5-23 14:41:36 | 显示全部楼层 |阅读模式
圣女贞德:监狱篇 Joan.the.Maid.2.The.Prisons.1994.1080p.BluRay.x264-DEPTH 22.40GB-1.png

译  名 圣女贞德:监狱篇 / Joan the Maid 2.: The Prisons / 圣女贞德-监狱篇
片  名 Jeanne la Pucelle II - Les prisons
年  代 1994
产  地 法国
类  别 剧情 / 传记 / 历史
语  言 法语
上映日期 1994-02-09(法国)
IMDb评分  7.3/10 from 481 users
IMDb链接  https://www.imdb.com/title/tt0107260
豆瓣评分 7.9/10 from 101 users
豆瓣链接 https://movie.douban.com/subject/1765328/
片  长 176 分钟
导  演 雅克·里维特 Jacques Rivette
编  剧 帕斯卡尔·博尼策尔 Pascal Bonitzer / 克里斯蒂娜·洛朗 Christine Laurent
主  演 桑德里娜·伯奈尔 Sandrine Bonnaire
       安德烈·马尔孔 André Marcon
       让-路易·里夏尔 Jean-Louis Richard


标  签 法国 | 法国电影 | JacquesRivette | Jacques_Rivette | 圣女贞德 | 1994 | 雅克·里维特 | 传记

简  介  

  新浪潮老将里维特的雄心大作,分战争篇和监狱篇上下两部。本片以德莱叶和布列松为目标,希望成就新的经典。 传奇历史事件「圣女贞德」发生时,以文字记述事件流传出去的方式尚未普及,因此事件留下来的属于史实的原始记录非常的少。但是圣女贞德的故事,却不断出现在文学作品、舞台剧、歌剧(神剧)与各种电影版本中,这背后一定是有它的原因的。
  该片讲述圣女贞德从被俘,到被审判,直至最后被处死的过程。在1430年5月23日的一场小规模战斗中,贞德被俘虏了。当她下令军队撤退回贡比涅城时,她处在军队的最后方以确保所有人都退回了城里,但就在这时贡比涅城因为害怕英军跟着闯入,没等到所有部队撤回便将城门关下,贞德与剩余的后卫部队便遭到了勃艮第人俘虏。最后法庭总结了贞德的12项罪行指控,但这些指控都和在审判中的纪录相互矛盾。在各种方式逼迫之下,不识字的贞德没有意识到死刑的逼近,签下了一份她完全看不懂的公开弃绝书。贞德还有另外一个罪名:像男人一样穿衣服。这在1431年可是一项大罪。贞德在战场上穿的是甲胄,但是在军营里却穿的男装,据记载,她穿的是一种很短的灰色的束腰外衣,套在朱红布料做的、织的很密的长筒袜子上面。那个时候还没有橡皮筋,男子的长统袜的顶端都开有成对的扣眼,中间用绳子串起来系紧。一般人用七种以上的花色来系这种袜子,而贞德用了20种,而且还系得很紧。主要是为了保护自己“奥尔良少女”的身份。在监狱里,贞德宣称,没有紧身的袜子,她感到很不安全,她要和教廷抗争到底,准备接受自己的命运。后来,她被套上一身长袍。行刑时,她没有遗言,只是向敌人发出了嘲笑。死刑于1431年5月30日在鲁昂进行,目击者描述了死刑的那一幕。贞德被绑在火刑柱上,她不断的祈祷著,并向旁边的神父请求让她握著一个小十字架。
  1. Video
  2. ID                                       : 1
  3. Format                                   : AVC
  4. Format/Info                              : Advanced Video Codec
  5. Format profile                           : High@L4
  6. Format settings                          : CABAC / 4 Ref Frames
  7. Format settings, CABAC                   : Yes
  8. Format settings, Reference frames        : 4 frames
  9. Codec ID                                 : V_MPEG4/ISO/AVC
  10. Duration                                 : 2 h 56 min
  11. Bit rate                                 : 16.4 Mb/s
  12. Width                                    : 1 920 pixels
  13. Height                                   : 1 036 pixels
  14. Display aspect ratio                     : 1.85:1
  15. Frame rate mode                          : Constant
  16. Frame rate                               : 24.000 FPS
  17. Color space                              : YUV
  18. Chroma subsampling                       : 4:2:0
  19. Bit depth                                : 8 bits
  20. Scan type                                : Progressive
  21. Bits/(Pixel*Frame)                       : 0.344
  22. Stream size                              : 20.2 GiB (90%)
  23. Writing library                          : x264 core 160 r3000 33f9e14
  24. Encoding settings                        : cabac=1 / ref=4 / deblock=1:-3:-3 / analyse=0x3:0x133 / me=umh / subme=10 / psy=1 / psy_rd=1.00:0.15 / mixed_ref=1 / me_range=32 / chroma_me=1 / trellis=2 / 8x8dct=1 / cqm=0 / deadzone=21,11 / fast_pskip=0 / chroma_qp_offset=-3 / threads=30 / lookahead_threads=5 / sliced_threads=0 / nr=0 / decimate=1 / interlaced=0 / bluray_compat=0 / constrained_intra=0 / bframes=8 / b_pyramid=2 / b_adapt=2 / b_bias=0 / direct=3 / weightb=1 / open_gop=0 / weightp=2 / keyint=250 / keyint_min=24 / scenecut=40 / intra_refresh=0 / rc=crf / mbtree=0 / crf=18.0 / qcomp=0.60 / qpmin=0 / qpmax=69 / qpstep=4 / ip_ratio=1.40 / pb_ratio=1.30 / aq=3:0.80
  25. Default                                  : Yes
  26. Forced                                   : No

  27. Audio
  28. ID                                       : 2
  29. Format                                   : DTS XLL
  30. Format/Info                              : Digital Theater Systems
  31. Commercial name                          : DTS-HD Master Audio
  32. Codec ID                                 : A_DTS
  33. Duration                                 : 2 h 56 min
  34. Bit rate mode                            : Variable
  35. Bit rate                                 : 1 742 kb/s
  36. Channel(s)                               : 6 channels
  37. Channel layout                           : C L R Ls Rs LFE
  38. Sampling rate                            : 48.0 kHz
  39. Frame rate                               : 93.750 FPS (512 SPF)
  40. Bit depth                                : 16 bits
  41. Compression mode                         : Lossless
  42. Stream size                              : 2.15 GiB (10%)
  43. Language                                 : French
  44. Default                                  : Yes
  45. Forced                                   : No

  46. Text #1
  47. ID                                       : 3
  48. Format                                   : UTF-8
  49. Codec ID                                 : S_TEXT/UTF8
  50. Codec ID/Info                            : UTF-8 Plain Text
  51. Duration                                 : 2 h 49 min
  52. Bit rate                                 : 35 b/s
  53. Count of elements                        : 1551
  54. Stream size                              : 44.6 KiB (0%)
  55. Language                                 : English
  56. Default                                  : Yes
  57. Forced                                   : Yes

  58. Text #2
  59. ID                                       : 4
  60. Format                                   : PGS
  61. Muxing mode                              : zlib
  62. Codec ID                                 : S_HDMV/PGS
  63. Codec ID/Info                            : Picture based subtitle format used on BDs/HD-DVDs
  64. Duration                                 : 2 h 49 min
  65. Bit rate                                 : 25.9 kb/s
  66. Count of elements                        : 3102
  67. Stream size                              : 31.4 MiB (0%)
  68. Language                                 : English
  69. Default                                  : No
  70. Forced                                   : No

  71. Menu
  72. 00:00:00.000                             : en:Chapter 01
  73. 00:11:49.583                             : en:Chapter 02
  74. 00:20:07.250                             : en:Chapter 03
  75. 00:32:02.792                             : en:Chapter 04
  76. 00:40:17.083                             : en:Chapter 05
  77. 00:51:04.750                             : en:Chapter 06
  78. 01:01:10.708                             : en:Chapter 07
  79. 01:09:19.250                             : en:Chapter 08
  80. 01:21:04.542                             : en:Chapter 09
  81. 01:30:27.083                             : en:Chapter 10
  82. 01:40:37.458                             : en:Chapter 11
  83. 01:52:22.083                             : en:Chapter 12
  84. 02:01:47.125                             : en:Chapter 13
  85. 02:09:50.250                             : en:Chapter 14
  86. 02:18:14.208                             : en:Chapter 15
  87. 02:28:29.417                             : en:Chapter 16
  88. 02:41:20.417                             : en:Chapter 17
  89. 02:48:12.208                             : en:Chapter 18
复制代码

圣女贞德:监狱篇 Joan.the.Maid.2.The.Prisons.1994.1080p.BluRay.x264-DEPTH 22.40GB-2.png







回复

使用道具 举报

发表于 2020-5-23 19:26:10 | 显示全部楼层
感谢楼主分享~~~~~
回复 支持 反对

使用道具 举报

发表于 5 天前 | 显示全部楼层
谢谢楼主分享
回复 支持 反对

使用道具 举报

发表于 昨天 17:28 | 显示全部楼层

楼主太厉害了!楼主,电影应该很好看我觉得蓝光电影网真是个好地方!
回复 支持 反对

使用道具 举报

懒得打字嘛,点击右侧快捷回复 【右侧内容,后台自定义】
您需要登录后才可以回帖 登录 | 立即加入

本版积分规则

现在加入蓝光电影网,注册一个账号
上个主题 下个主题 快速回复 收藏帖子 返回列表 客服中心 搜索

手机版|小黑屋| 蓝光电影网 |网站地图 

Copyright © 2015-2019 Comsenz Inc.  Template by 蓝光电影论坛 All Rights Reserved.

Powered by 蓝光电影网 X3.4

特别声明:本站所有资源均由网上收集而来,版权归原影音公司所有,如果侵犯了你的权益,请通知我们,我们会及时删除侵权内容.

快速回复 返回顶部 返回列表