找回密码

蓝光电影网

查看: 221|回复: 4

[剧情] 看不见的苏/隱形少女 Invisible.Sue.2018.1080p.BluRay.x264-UNVEiL 8.66GB

[复制链接]

 成长值: 26140

发表于 2020-5-23 14:36:46 | 显示全部楼层 |阅读模式
p2568024856.jpg

译  名 看不见的苏 / 隱形少女(台)
片  名 Invisible Sue
年  代 2019
产  地 德国
类  别 剧情
语  言 德语
上映日期 2019-10-31(德国)
IMDb评分  4.4/10 from 269 users
IMDb链接  https://www.imdb.com/title/tt7689532
豆瓣评分 0/10 from 0 users
豆瓣链接 https://movie.douban.com/subject/30450575/
片  长 93分钟
导  演 Markus Dietrich
编  剧 Markus Dietrich
主  演 吉恩·布鲁克斯 Jean Brooks
       Anna Shirin Habedank


标  签 德国 | 科幻 | 动作 | 2019 | 喜剧 | 青春 | 孩子 | 卢森堡

简  介  

  少女蘇的母親是位厲害的科學家,某天,蘇在實驗室不小心接觸母親研發的藥水後,變得能夠隱形,因為這項新的能力,本來是學校怪咖的蘇意外交到了一些朋友。然而過不久後,有人覬覦這個隱形藥水的秘密,竟然綁架了她的母親。借助隱形的能力和朋友的幫忙,她要追捕那些綁架者,並從他們手中救回母親!
  1. Video
  2. ID                                       : 1
  3. Format                                   : AVC
  4. Format/Info                              : Advanced Video Codec
  5. Format profile                           : High@L4
  6. Format settings                          : CABAC / 5 Ref Frames
  7. Format settings, CABAC                   : Yes
  8. Format settings, Reference frames        : 5 frames
  9. Codec ID                                 : V_MPEG4/ISO/AVC
  10. Duration                                 : 1 h 35 min
  11. Bit rate                                 : 9 294 kb/s
  12. Width                                    : 1 920 pixels
  13. Height                                   : 800 pixels
  14. Display aspect ratio                     : 2.40:1
  15. Frame rate mode                          : Constant
  16. Frame rate                               : 24.000 FPS
  17. Color space                              : YUV
  18. Chroma subsampling                       : 4:2:0
  19. Bit depth                                : 8 bits
  20. Scan type                                : Progressive
  21. Bits/(Pixel*Frame)                       : 0.252
  22. Stream size                              : 6.20 GiB (72%)
  23. Writing library                          : x264 core 160 r3000 33f9e14
  24. Encoding settings                        : cabac=1 / ref=5 / deblock=1:-3:-3 / analyse=0x3:0x133 / me=umh / subme=9 / psy=1 / psy_rd=1.00:0.00 / mixed_ref=1 / me_range=16 / chroma_me=1 / trellis=2 / 8x8dct=1 / cqm=0 / deadzone=21,11 / fast_pskip=0 / chroma_qp_offset=-2 / threads=25 / lookahead_threads=2 / sliced_threads=0 / nr=0 / decimate=1 / interlaced=0 / bluray_compat=0 / constrained_intra=0 / bframes=3 / b_pyramid=2 / b_adapt=2 / b_bias=0 / direct=3 / weightb=1 / open_gop=0 / weightp=2 / keyint=240 / keyint_min=24 / scenecut=40 / intra_refresh=0 / rc_lookahead=60 / rc=crf / mbtree=1 / crf=17.0 / qcomp=0.60 / qpmin=0 / qpmax=69 / qpstep=4 / ip_ratio=1.40 / aq=1:1.00
  25. Language                                 : English
  26. Default                                  : Yes
  27. Forced                                   : No

  28. Audio
  29. ID                                       : 2
  30. Format                                   : DTS XLL
  31. Format/Info                              : Digital Theater Systems
  32. Commercial name                          : DTS-HD Master Audio
  33. Codec ID                                 : A_DTS
  34. Duration                                 : 1 h 35 min
  35. Bit rate mode                            : Variable
  36. Bit rate                                 : 3 650 kb/s
  37. Channel(s)                               : 6 channels
  38. Channel layout                           : C L R Ls Rs LFE
  39. Sampling rate                            : 48.0 kHz
  40. Frame rate                               : 93.750 FPS (512 SPF)
  41. Bit depth                                : 24 bits
  42. Compression mode                         : Lossless
  43. Stream size                              : 2.44 GiB (28%)
  44. Language                                 : German
  45. Default                                  : Yes
  46. Forced                                   : No

  47. Text #1
  48. ID                                       : 3
  49. Format                                   : UTF-8
  50. Codec ID                                 : S_TEXT/UTF8
  51. Codec ID/Info                            : UTF-8 Plain Text
  52. Duration                                 : 1 h 29 min
  53. Bit rate                                 : 52 b/s
  54. Count of elements                        : 1095
  55. Stream size                              : 34.7 KiB (0%)
  56. Language                                 : English
  57. Default                                  : Yes
  58. Forced                                   : No

  59. Text #2
  60. ID                                       : 4
  61. Format                                   : PGS
  62. Muxing mode                              : zlib
  63. Codec ID                                 : S_HDMV/PGS
  64. Codec ID/Info                            : Picture based subtitle format used on BDs/HD-DVDs
  65. Duration                                 : 1 h 29 min
  66. Bit rate                                 : 32.3 kb/s
  67. Count of elements                        : 2190
  68. Stream size                              : 20.8 MiB (0%)
  69. Language                                 : English
  70. Default                                  : No
  71. Forced                                   : No

  72. Text #3
  73. ID                                       : 5
  74. Format                                   : PGS
  75. Muxing mode                              : zlib
  76. Codec ID                                 : S_HDMV/PGS
  77. Codec ID/Info                            : Picture based subtitle format used on BDs/HD-DVDs
  78. Duration                                 : 1 h 34 min
  79. Bit rate                                 : 41.1 kb/s
  80. Count of elements                        : 2534
  81. Stream size                              : 27.8 MiB (0%)
  82. Language                                 : German
  83. Default                                  : No
  84. Forced                                   : No

  85. Menu
  86. 00:00:00.000                             : :Kapitel 01
  87. 00:12:01.000                             : :Kapitel 02
  88. 00:24:01.000                             : :Kapitel 03
  89. 00:35:45.000                             : :Kapitel 04
  90. 00:47:32.000                             : :Kapitel 05
  91. 01:00:48.000                             : :Kapitel 06
  92. 01:11:24.000                             : :Kapitel 07
  93. 01:21:35.000                             : :Kapitel 08
  94. 01:31:43.000                             : :Kapitel 09
复制代码

看不见的苏/隱形少女 Invisible.Sue.2018.1080p.BluRay.x264-UNVEiL 8.66GB-1.png







回复

使用道具 举报

发表于 2020-5-23 16:54:21 | 显示全部楼层

楼主太厉害了!楼主,电影应该很好看我觉得蓝光电影网真是个好地方!
回复 支持 反对

使用道具 举报

发表于 2020-5-23 20:38:31 | 显示全部楼层
感谢楼主分享
回复 支持 反对

使用道具 举报

发表于 7 天前 | 显示全部楼层

这东西我收了!谢谢楼主!蓝光电影网真好!
回复 支持 反对

使用道具 举报

发表于 前天 11:34 | 显示全部楼层

这东西我收了!谢谢楼主!蓝光电影网真好!
回复 支持 反对

使用道具 举报

懒得打字嘛,点击右侧快捷回复 【右侧内容,后台自定义】
您需要登录后才可以回帖 登录 | 立即加入

本版积分规则

现在加入蓝光电影网,注册一个账号
上个主题 下个主题 快速回复 收藏帖子 返回列表 客服中心 搜索

手机版|小黑屋| 蓝光电影网 |网站地图 

Copyright © 2015-2019 Comsenz Inc.  Template by 蓝光电影论坛 All Rights Reserved.

Powered by 蓝光电影网 X3.4

特别声明:本站所有资源均由网上收集而来,版权归原影音公司所有,如果侵犯了你的权益,请通知我们,我们会及时删除侵权内容.

快速回复 返回顶部 返回列表