找回密码

蓝光电影网

查看: 267|回复: 8

[动作] 虎胆追凶/猛龙怪客 Death.Wish.2018.UNCUT.1080p.BluRay.x264-CAPRiCORN 14.70GB

[复制链接]

 成长值: 26140

发表于 2020-5-23 14:28:12 | 显示全部楼层 |阅读模式
虎胆追凶/猛龙怪客 Death.Wish.2018.UNCUT.1080p.BluRay.x264-CAPRiCORN 14.70GB-1.png

译  名 虎胆追凶 / 猛龙怪客
片  名 Death Wish
年  代 2018
产  地 美国
类  别 动作 / 惊悚 / 犯罪
语  言 英语
上映日期 2018-03-02(美国) / 2018-09-21(中国大陆)
IMDb评分  6.4/10 from 58939 users
IMDb链接  https://www.imdb.com/title/tt1137450
豆瓣评分 6.5/10 from 22550 users
豆瓣链接 https://movie.douban.com/subject/3078549/
片  长 97分钟(中国)
导  演 伊莱·罗斯 Eli Roth
编  剧 乔·卡纳汉 Joe Carnahan / 布赖恩·加菲尔德 Brian Garfield / 温德尔·梅斯 Wendell Mayes
主  演 布鲁斯·威利斯 Bruce Willis
       文森特·多诺费奥 Vincent D'Onofrio
       伊丽莎白·苏 Elisabeth Shue
       迪恩·诺里斯 Dean Norris
       博·纳普 Beau Knapp
       金伯莉·伊丽丝 Kimberly Elise
       卡米拉·莫罗 Camila Morrone
       兰·卡琉 Len Cariou
       杰克·凯西 Jack Kesy
       罗尼·吉恩·贝尔维斯 Ronnie Gene Blevins
       可比·毕丝·布兰顿 Kirby Bliss Blanton
       安德里亚斯·艾波吉斯 Andreas Apergis
       伊恩·马休斯 Ian Matthews
       温迪·古逊 Wendy Crewson
       瓦罗娜·塞茨瓦埃洛 Warona Setshwaelo
       路易斯·奥利瓦 Luis Oliva
       杰森·卡弗利尔 Jason Cavalier
       夸西·宋桂 Kwasi Songui


标  签 犯罪 | 美国 | 动作 | 暴力 | 复仇 | 2018 | 惊悚 | 翻拍

简  介  

  在枪案频发的芝加哥,保罗原本是一个温文儒雅仁心妙手的医生,拥有一个幸福美满的家庭。一场突如其来的厄运让他的妻女惨遭暴徒欺凌,女儿昏迷不醒,爱妻更因此丧失生命,与他天人永隔。然而,城市里连串的凶案让警方束手无策,种种原因使得保罗的案件无法结案,本应受到制裁的凶徒逍遥法外。
  在崩溃和绝望中,保罗的人生价值观彻底改变。为了替家人复仇,保罗决定孤身寻凶,主动出击,单枪匹马在城市街头制裁暴力犯罪。警方和大众对这位伸张正义的神秘“帽兜男”众说纷纭,争论不休。在“守护天使”的外衣下,保罗最终迎来了和仇人的生死决战。

获奖情况  

  第39届金酸莓奖(2019)
  最差男主角(提名) 布鲁斯·威利斯
  最差前传、重拍、恶搞及续集电影(提名)
  1. Video
  2. ID                                       : 1
  3. Format                                   : AVC
  4. Format/Info                              : Advanced Video Codec
  5. Format profile                           : High@L4
  6. Format settings                          : CABAC / 5 Ref Frames
  7. Format settings, CABAC                   : Yes
  8. Format settings, Reference frames        : 5 frames
  9. Codec ID                                 : V_MPEG4/ISO/AVC
  10. Duration                                 : 1 h 47 min
  11. Bit rate                                 : 16.1 Mb/s
  12. Width                                    : 1 920 pixels
  13. Height                                   : 800 pixels
  14. Display aspect ratio                     : 2.40:1
  15. Frame rate mode                          : Constant
  16. Frame rate                               : 23.976 (24000/1001/189150) FPS
  17. Color space                              : YUV
  18. Chroma subsampling                       : 4:2:0
  19. Bit depth                                : 8 bits
  20. Scan type                                : Progressive
  21. Bits/(Pixel*Frame)                       : 0.437
  22. Stream size                              : 12.1 GiB (83%)
  23. Writing library                          : x264 core 160 r3000 33f9e14
  24. Encoding settings                        : cabac=1 / ref=5 / deblock=1:0:0 / analyse=0x3:0x133 / me=umh / subme=9 / psy=1 / psy_rd=1.00:0.00 / mixed_ref=1 / me_range=16 / chroma_me=1 / trellis=2 / 8x8dct=1 / cqm=0 / deadzone=21,11 / fast_pskip=1 / chroma_qp_offset=-2 / threads=12 / lookahead_threads=1 / sliced_threads=0 / nr=0 / decimate=1 / interlaced=0 / bluray_compat=0 / constrained_intra=0 / bframes=3 / b_pyramid=2 / b_adapt=2 / b_bias=0 / direct=3 / weightb=1 / open_gop=0 / weightp=2 / keyint=240 / keyint_min=23 / scenecut=40 / intra_refresh=0 / rc_lookahead=60 / rc=crf / mbtree=1 / crf=13.6 / qcomp=0.60 / qpmin=0 / qpmax=69 / qpstep=4 / vbv_maxrate=62500 / vbv_bufsize=78125 / crf_max=0.0 / nal_hrd=none / filler=0 / ip_ratio=1.40 / aq=1:1.00
  25. Language                                 : English
  26. Default                                  : Yes
  27. Forced                                   : No

  28. Audio #1
  29. ID                                       : 2
  30. Format                                   : DTS XLL
  31. Format/Info                              : Digital Theater Systems
  32. Commercial name                          : DTS-HD Master Audio
  33. Codec ID                                 : A_DTS
  34. Duration                                 : 1 h 47 min
  35. Bit rate mode                            : Variable
  36. Bit rate                                 : 3 259 kb/s
  37. Channel(s)                               : 6 channels
  38. Channel layout                           : C L R Ls Rs LFE
  39. Sampling rate                            : 48.0 kHz
  40. Frame rate                               : 93.750 FPS (512 SPF)
  41. Bit depth                                : 24 bits
  42. Compression mode                         : Lossless
  43. Stream size                              : 2.46 GiB (17%)
  44. Language                                 : English
  45. Default                                  : Yes
  46. Forced                                   : No

  47. Audio #2
  48. ID                                       : 3
  49. Format                                   : AAC LC
  50. Format/Info                              : Advanced Audio Codec Low Complexity
  51. Codec ID                                 : A_AAC-2
  52. Duration                                 : 1 h 47 min
  53. Bit rate                                 : 124 kb/s
  54. Channel(s)                               : 2 channels
  55. Channel layout                           : L R
  56. Sampling rate                            : 48.0 kHz
  57. Frame rate                               : 46.875 FPS (1024 SPF)
  58. Compression mode                         : Lossy
  59. Delay relative to video                  : 20 ms
  60. Stream size                              : 96.1 MiB (1%)
  61. Title                                    : Commentary
  62. Language                                 : English
  63. Default                                  : No
  64. Forced                                   : No

  65. Text #1
  66. ID                                       : 4
  67. Format                                   : UTF-8
  68. Codec ID                                 : S_TEXT/UTF8
  69. Codec ID/Info                            : UTF-8 Plain Text
  70. Duration                                 : 1 h 47 min
  71. Bit rate                                 : 61 b/s
  72. Count of elements                        : 1361
  73. Stream size                              : 48.3 KiB (0%)
  74. Language                                 : English
  75. Default                                  : Yes
  76. Forced                                   : No

  77. Text #2
  78. ID                                       : 5
  79. Format                                   : PGS
  80. Muxing mode                              : zlib
  81. Codec ID                                 : S_HDMV/PGS
  82. Codec ID/Info                            : Picture based subtitle format used on BDs/HD-DVDs
  83. Duration                                 : 1 h 47 min
  84. Bit rate                                 : 17.8 kb/s
  85. Count of elements                        : 2722
  86. Stream size                              : 13.6 MiB (0%)
  87. Language                                 : English
  88. Default                                  : No
  89. Forced                                   : No

  90. Menu
  91. 00:00:00.000                             : en:00:00:00.000
  92. 00:09:24.355                             : en:00:09:24.355
  93. 00:17:21.624                             : en:00:17:21.624
  94. 00:25:07.256                             : en:00:25:07.256
  95. 00:33:19.080                             : en:00:33:19.080
  96. 00:41:52.552                             : en:00:41:52.552
  97. 00:50:11.133                             : en:00:50:11.133
  98. 00:58:51.445                             : en:00:58:51.445
  99. 01:08:19.637                             : en:01:08:19.637
  100. 01:13:55.806                             : en:01:13:55.806
  101. 01:23:41.224                             : en:01:23:41.224
  102. 01:32:51.566                             : en:01:32:51.566
复制代码

虎胆追凶/猛龙怪客 Death.Wish.2018.UNCUT.1080p.BluRay.x264-CAPRiCORN 14.70GB-2.png






回复

使用道具 举报

发表于 2020-5-23 16:03:09 | 显示全部楼层

楼主太厉害了!楼主,电影应该很好看我觉得蓝光电影网真是个好地方!
回复 支持 反对

使用道具 举报

发表于 2020-5-23 16:55:26 | 显示全部楼层

这个帖子不回对不起自己!我想我是一天也不能离开蓝光电影网
回复 支持 反对

使用道具 举报

 成长值: 2960

发表于 2020-5-23 17:04:08 | 显示全部楼层
谢谢楼主无私分享。
回复 支持 反对

使用道具 举报

发表于 2020-5-23 20:57:16 | 显示全部楼层
楼主发贴辛苦了,谢谢楼主分享!我觉得蓝光电影网是注册对了!
回复 支持 反对

使用道具 举报

发表于 7 天前 | 显示全部楼层

谢谢楼主无私分享。
回复 支持 反对

使用道具 举报

发表于 7 天前 | 显示全部楼层

这东西我收了!谢谢楼主!蓝光电影网真好!
回复 支持 反对

使用道具 举报

发表于 7 天前 | 显示全部楼层

我看不错噢 谢谢楼主!蓝光电影网越来越好!
回复 支持 反对

使用道具 举报

发表于 7 天前 | 显示全部楼层
谢谢LZ分享下来看看
回复 支持 反对

使用道具 举报

懒得打字嘛,点击右侧快捷回复 【右侧内容,后台自定义】
您需要登录后才可以回帖 登录 | 立即加入

本版积分规则

现在加入蓝光电影网,注册一个账号
上个主题 下个主题 快速回复 收藏帖子 返回列表 客服中心 搜索

手机版|小黑屋| 蓝光电影网 |网站地图 

Copyright © 2015-2019 Comsenz Inc.  Template by 蓝光电影论坛 All Rights Reserved.

Powered by 蓝光电影网 X3.4

特别声明:本站所有资源均由网上收集而来,版权归原影音公司所有,如果侵犯了你的权益,请通知我们,我们会及时删除侵权内容.

快速回复 返回顶部 返回列表