找回密码

蓝光电影网

查看: 29|回复: 0

[剧情片] 血回廊 Corridors.of.Blood.1958.1080p.AMZN.WEBRip.DDP2.0.x264-TEPES 4.13GB

[复制链接]

 成长值: 26095

发表于 5 天前 | 显示全部楼层 |阅读模式
血回廊 Corridors.of.Blood.1958.1080p.AMZN.WEBRip.DDP2.0.x264-TEPES 4.13GB-1.png

译  名 血回廊 / Doctor from Seven Dials / 血色走廊
片  名 Corridors of Blood
年  代 1958
产  地 英国
类  别 剧情 / 惊悚 / 恐怖 / 犯罪
语  言 英语
上映日期 1958-12-01
IMDb评分  6.5/10 from 1655 users
IMDb链接  https://www.imdb.com/title/tt0051542
豆瓣评分 6.1/10 from 101 users
豆瓣链接 https://movie.douban.com/subject/1904183/
片  长 86 分钟
导  演 Robert Day
编  剧 Jean Scott Rogers
主  演 Boris Karloff
       Betta St. John
       Christopher Lee
       Finlay Currie


标  签 英国 | CC | 惊悚 | 1958 | 英国电影 | cult | RobertDay | CC版

简  介  

  为了解决外科手术带来的痛苦,十九世纪四十年代伦敦的Thomas Bolton医生致力研究一种基于鸦片的麻醉药,不久他因此染上了毒瘾。为了使实验能够进行下去同时满足毒瘾,他不得不面对利用他签名出售尸体的谋杀犯。
  1. Video
  2. ID                                       : 1
  3. Format                                   : AVC
  4. Format/Info                              : Advanced Video Codec
  5. Format profile                           : High@L4
  6. Format settings                          : CABAC / 4 Ref Frames
  7. Format settings, CABAC                   : Yes
  8. Format settings, Reference frames        : 4 frames
  9. Codec ID                                 : V_MPEG4/ISO/AVC
  10. Duration                                 : 1 h 26 min
  11. Bit rate mode                            : Variable
  12. Bit rate                                 : 6 567 kb/s
  13. Maximum bit rate                         : 15.0 Mb/s
  14. Width                                    : 1 920 pixels
  15. Height                                   : 1 080 pixels
  16. Display aspect ratio                     : 16:9
  17. Frame rate mode                          : Constant
  18. Frame rate                               : 23.976 (24000/1001/189150) FPS
  19. Color space                              : YUV
  20. Chroma subsampling                       : 4:2:0
  21. Bit depth                                : 8 bits
  22. Scan type                                : Progressive
  23. Bits/(Pixel*Frame)                       : 0.132
  24. Stream size                              : 3.99 GiB (97%)
  25. Writing library                          : x264 core 148 r2623 d5b2374
  26. Encoding settings                        : cabac=1 / ref=4 / deblock=1:-1:-1 / analyse=0x3:0x133 / me=umh / subme=9 / psy=1 / psy_rd=1.00:0.15 / mixed_ref=1 / me_range=24 / chroma_me=1 / trellis=2 / 8x8dct=1 / cqm=0 / deadzone=21,11 / fast_pskip=1 / chroma_qp_offset=-3 / threads=34 / lookahead_threads=5 / sliced_threads=0 / nr=150 / decimate=1 / interlaced=0 / bluray_compat=0 / constrained_intra=0 / bframes=8 / b_pyramid=2 / b_adapt=2 / b_bias=0 / direct=3 / weightb=1 / open_gop=0 / weightp=2 / keyint=120 / keyint_min=61 / scenecut=0 / intra_refresh=0 / rc_lookahead=120 / rc=crf / mbtree=1 / crf=18.0 / qcomp=0.60 / qpmin=0 / qpmax=69 / qpstep=4 / vbv_maxrate=15000 / vbv_bufsize=31250 / crf_max=0.0 / nal_hrd=vbr / filler=0 / ip_ratio=1.40 / aq=3:1.00
  27. Default                                  : Yes
  28. Forced                                   : No
  29. Color range                              : Limited
  30. Color primaries                          : BT.709
  31. Transfer characteristics                 : BT.709
  32. Matrix coefficients                      : BT.709

  33. Audio
  34. ID                                       : 2
  35. Format                                   : E-AC-3
  36. Format/Info                              : Enhanced AC-3
  37. Commercial name                          : Dolby Digital Plus
  38. Codec ID                                 : A_EAC3
  39. Duration                                 : 1 h 26 min
  40. Bit rate mode                            : Constant
  41. Bit rate                                 : 224 kb/s
  42. Channel(s)                               : 2 channels
  43. Channel layout                           : L R
  44. Sampling rate                            : 48.0 kHz
  45. Frame rate                               : 31.250 FPS (1536 SPF)
  46. Compression mode                         : Lossy
  47. Stream size                              : 139 MiB (3%)
  48. Language                                 : English
  49. Service kind                             : Complete Main
  50. Default                                  : Yes
  51. Forced                                   : No

  52. Text #1
  53. ID                                       : 3
  54. Format                                   : UTF-8
  55. Codec ID                                 : S_TEXT/UTF8
  56. Codec ID/Info                            : UTF-8 Plain Text
  57. Duration                                 : 1 h 23 min
  58. Bit rate                                 : 52 b/s
  59. Count of elements                        : 831
  60. Stream size                              : 32.2 KiB (0%)
  61. Language                                 : English
  62. Default                                  : No
  63. Forced                                   : No

  64. Text #2
  65. ID                                       : 4
  66. Format                                   : UTF-8
  67. Codec ID                                 : S_TEXT/UTF8
  68. Codec ID/Info                            : UTF-8 Plain Text
  69. Duration                                 : 1 h 23 min
  70. Bit rate                                 : 60 b/s
  71. Count of elements                        : 975
  72. Stream size                              : 37.0 KiB (0%)
  73. Language                                 : English
  74. Default                                  : No
  75. Forced                                   : No
复制代码

血回廊 Corridors.of.Blood.1958.1080p.AMZN.WEBRip.DDP2.0.x264-TEPES 4.13GB-2.png 血回廊 Corridors.of.Blood.1958.1080p.AMZN.WEBRip.DDP2.0.x264-TEPES 4.13GB-3.png 血回廊 Corridors.of.Blood.1958.1080p.AMZN.WEBRip.DDP2.0.x264-TEPES 4.13GB-4.png







回复

使用道具 举报

懒得打字嘛,点击右侧快捷回复 【右侧内容,后台自定义】
您需要登录后才可以回帖 登录 | 立即加入

本版积分规则

现在加入蓝光电影网,注册一个账号
上个主题 下个主题 快速回复 收藏帖子 返回列表 客服中心 搜索

手机版|小黑屋| 蓝光电影网 |网站地图 

Copyright © 2015-2019 Comsenz Inc.  Template by 蓝光电影论坛 All Rights Reserved.

Powered by 蓝光电影网 X3.4

特别声明:本站所有资源均由网上收集而来,版权归原影音公司所有,如果侵犯了你的权益,请通知我们,我们会及时删除侵权内容.

快速回复 返回顶部 返回列表