找回密码

蓝光电影网

查看: 89|回复: 2

[剧情] 舞吧女孩/跳吧女孩子 Dance.Girl.Dance.1940.1080p.BluRay.x264.DTS-FGT 8.16GB

[复制链接]

 成长值: 26140

发表于 2020-5-23 00:22:45 | 显示全部楼层 |阅读模式
舞吧女孩/跳吧女孩子 Dance.Girl.Dance.1940.1080p.BluRay.x264.DTS-FGT 8.16GB-1.png

译  名 舞吧,女孩 / 跳吧,女孩子
片  名 Dance, Girl, Dance
年  代 1940
产  地 美国
类  别 剧情 / 喜剧
语  言 英语
上映日期 1940-08-30
IMDb评分  6.7/10 from 1847 users
IMDb链接  https://www.imdb.com/title/tt0032376
豆瓣评分 7.3/10 from 522 users
豆瓣链接 https://movie.douban.com/subject/1304153/
片  长 90 分钟
导  演 多萝西·阿兹娜 Dorothy Arzner
编  剧 弗兰克·戴维斯 Frank Davis / 苔丝·施莱辛格 Tess Slesinger / 维基·包姆 Vicki Baum
主  演 玛琳·奥哈拉 Maureen O'Hara
       路易斯·海沃德 Louis Hayward
       露西尔·鲍尔 Lucille Ball
       弗吉尼亚·菲尔德 Virginia Field
       拉尔夫·贝拉米 Ralph Bellamy


标  签 美国 | Dorothy_Arzner | 1940s | 美国电影 | 女性 | 1940 | 女性导演 | 经典

简  介  

  暂无相关剧情介绍
  1. Video
  2. ID                                       : 1
  3. Format                                   : AVC
  4. Format/Info                              : Advanced Video Codec
  5. Format profile                           : High@L4
  6. Format settings                          : CABAC / 4 Ref Frames
  7. Format settings, CABAC                   : Yes
  8. Format settings, Reference frames        : 4 frames
  9. Codec ID                                 : V_MPEG4/ISO/AVC
  10. Duration                                 : 1 h 29 min
  11. Bit rate                                 : 11.5 Mb/s
  12. Width                                    : 1 480 pixels
  13. Height                                   : 1 080 pixels
  14. Display aspect ratio                     : 1.370
  15. Frame rate mode                          : Constant
  16. Frame rate                               : 23.976 (24000/1001/189150) FPS
  17. Color space                              : YUV
  18. Chroma subsampling                       : 4:2:0
  19. Bit depth                                : 8 bits
  20. Scan type                                : Progressive
  21. Bits/(Pixel*Frame)                       : 0.300
  22. Stream size                              : 7.21 GiB (88%)
  23. Title                                    : Dance.Girl.Dance.1940.1080p.BluRay.x264.DTS-FGT
  24. Writing library                          : x264 core 148 r2795M aaa9aa8
  25. Encoding settings                        : cabac=1 / ref=4 / deblock=1:-2:-2 / analyse=0x3:0x113 / me=umh / subme=9 / psy=1 / psy_rd=1.00:0.15 / mixed_ref=1 / me_range=16 / chroma_me=1 / trellis=2 / 8x8dct=1 / cqm=0 / deadzone=21,11 / fast_pskip=1 / chroma_qp_offset=-3 / threads=48 / lookahead_threads=3 / sliced_threads=0 / nr=0 / decimate=1 / interlaced=0 / bluray_compat=0 / constrained_intra=0 / bframes=3 / b_pyramid=2 / b_adapt=1 / b_bias=0 / direct=3 / weightb=1 / open_gop=0 / weightp=2 / keyint=250 / keyint_min=25 / scenecut=40 / intra_refresh=0 / rc_lookahead=50 / rc=2pass / mbtree=1 / bitrate=11500 / ratetol=1.0 / qcomp=0.60 / qpmin=0 / qpmax=69 / qpstep=4 / cplxblur=20.0 / qblur=0.5 / vbv_maxrate=31250 / vbv_bufsize=31250 / nal_hrd=none / filler=0 / ip_ratio=1.40 / aq=1:1.00
  26. Language                                 : English
  27. Default                                  : Yes
  28. Forced                                   : No

  29. Audio
  30. ID                                       : 2
  31. Format                                   : DTS
  32. Format/Info                              : Digital Theater Systems
  33. Codec ID                                 : A_DTS
  34. Duration                                 : 1 h 29 min
  35. Bit rate mode                            : Constant
  36. Bit rate                                 : 1 509 kb/s
  37. Channel(s)                               : 1 channel
  38. Channel layout                           : C
  39. Sampling rate                            : 48.0 kHz
  40. Frame rate                               : 93.750 FPS (512 SPF)
  41. Bit depth                                : 16 bits
  42. Compression mode                         : Lossy
  43. Stream size                              : 969 MiB (12%)
  44. Title                                    : Dance.Girl.Dance.1940.1080p.BluRay.x264.DTS-FGT
  45. Language                                 : English
  46. Default                                  : Yes
  47. Forced                                   : No

  48. Text
  49. ID                                       : 3
  50. Format                                   : UTF-8
  51. Codec ID                                 : S_TEXT/UTF8
  52. Codec ID/Info                            : UTF-8 Plain Text
  53. Duration                                 : 1 h 26 min
  54. Bit rate                                 : 62 b/s
  55. Count of elements                        : 1084
  56. Stream size                              : 39.4 KiB (0%)
  57. Language                                 : English
  58. Default                                  : Yes
  59. Forced                                   : No

  60. Menu
  61. 00:00:00.000                             : en:Chapter 01
  62. 00:10:30.839                             : en:Chapter 02
  63. 00:13:55.209                             : en:Chapter 03
  64. 00:21:41.509                             : en:Chapter 04
  65. 00:34:23.520                             : en:Chapter 05
  66. 00:40:54.494                             : en:Chapter 06
  67. 00:51:52.818                             : en:Chapter 07
  68. 01:01:53.293                             : en:Chapter 08
  69. 01:10:20.007                             : en:Chapter 09
  70. 01:20:03.257                             : en:Chapter 10
  71. 01:26:40.404                             : en:Chapter 11
复制代码

舞吧女孩/跳吧女孩子 Dance.Girl.Dance.1940.1080p.BluRay.x264.DTS-FGT 8.16GB-2.png 舞吧女孩/跳吧女孩子 Dance.Girl.Dance.1940.1080p.BluRay.x264.DTS-FGT 8.16GB-3.png 舞吧女孩/跳吧女孩子 Dance.Girl.Dance.1940.1080p.BluRay.x264.DTS-FGT 8.16GB-4.png






回复

使用道具 举报

发表于 2020-5-23 01:05:50 | 显示全部楼层
谢谢楼主 辛苦了
回复 支持 反对

使用道具 举报

发表于 2020-5-23 01:24:25 | 显示全部楼层

这东西我收了!谢谢楼主!蓝光电影网真好!
回复 支持 反对

使用道具 举报

懒得打字嘛,点击右侧快捷回复 【右侧内容,后台自定义】
您需要登录后才可以回帖 登录 | 立即加入

本版积分规则

现在加入蓝光电影网,注册一个账号
上个主题 下个主题 快速回复 收藏帖子 返回列表 客服中心 搜索

手机版|小黑屋| 蓝光电影网 |网站地图 

Copyright © 2015-2019 Comsenz Inc.  Template by 蓝光电影论坛 All Rights Reserved.

Powered by 蓝光电影网 X3.4

特别声明:本站所有资源均由网上收集而来,版权归原影音公司所有,如果侵犯了你的权益,请通知我们,我们会及时删除侵权内容.

快速回复 返回顶部 返回列表