找回密码

蓝光电影网

查看: 128|回复: 1

[喜剧] 群婚 Group.Marriage.1973.1080p.BluRay.x264.DTS-FGT 8.20GB

[复制链接]

 成长值: 26140

发表于 2020-5-23 00:22:04 | 显示全部楼层 |阅读模式
群婚 Group.Marriage.1973.1080p.BluRay.x264.DTS-FGT 8.20GB-1.png

译  名 群婚
片  名 Group Marriage
年  代 1973
产  地 美国
类  别 喜剧
语  言 英语
上映日期 1973-03
IMDb评分  5.8/10 from 81 users
IMDb链接  https://www.imdb.com/title/tt0068664
豆瓣评分 0/10 from 0 users
豆瓣链接 https://movie.douban.com/subject/25973732/
导  演 Stephanie Rothman
编  剧 Stephanie Rothman / Charles S. Swartz
主  演 维多利亚·沃特瑞 Victoria Vetr
       Aimée Eccles
       Solomon Sturges


标  签 1973 | 美国 | 美国电影 | 家庭 | 喜剧 | 同性 | ucla | StrongR

简  介  

  暂无相关剧情介绍
  1. Video
  2. ID                                       : 1
  3. Format                                   : AVC
  4. Format/Info                              : Advanced Video Codec
  5. Format profile                           : High@L4
  6. Format settings                          : CABAC / 4 Ref Frames
  7. Format settings, CABAC                   : Yes
  8. Format settings, Reference frames        : 4 frames
  9. Codec ID                                 : V_MPEG4/ISO/AVC
  10. Duration                                 : 1 h 30 min
  11. Bit rate                                 : 11.5 Mb/s
  12. Width                                    : 1 920 pixels
  13. Height                                   : 1 080 pixels
  14. Display aspect ratio                     : 16:9
  15. Frame rate mode                          : Constant
  16. Frame rate                               : 23.976 (24000/1001/189150) FPS
  17. Color space                              : YUV
  18. Chroma subsampling                       : 4:2:0
  19. Bit depth                                : 8 bits
  20. Scan type                                : Progressive
  21. Bits/(Pixel*Frame)                       : 0.231
  22. Stream size                              : 7.25 GiB (88%)
  23. Title                                    : Group.Marriage.1973.1080p.BluRay.x264.DTS-FGT
  24. Writing library                          : x264 core 148 r2748 97eaef2
  25. Encoding settings                        : cabac=1 / ref=4 / deblock=1:-2:-2 / analyse=0x3:0x113 / me=umh / subme=9 / psy=1 / psy_rd=1.00:0.15 / mixed_ref=1 / me_range=16 / chroma_me=1 / trellis=2 / 8x8dct=1 / cqm=0 / deadzone=21,11 / fast_pskip=1 / chroma_qp_offset=-3 / threads=24 / lookahead_threads=3 / sliced_threads=0 / nr=0 / decimate=1 / interlaced=0 / bluray_compat=0 / constrained_intra=0 / bframes=3 / b_pyramid=2 / b_adapt=1 / b_bias=0 / direct=3 / weightb=1 / open_gop=0 / weightp=2 / keyint=250 / keyint_min=25 / scenecut=40 / intra_refresh=0 / rc_lookahead=50 / rc=2pass / mbtree=1 / bitrate=11500 / ratetol=1.0 / qcomp=0.60 / qpmin=0 / qpmax=69 / qpstep=4 / cplxblur=20.0 / qblur=0.5 / vbv_maxrate=31250 / vbv_bufsize=31250 / nal_hrd=none / filler=0 / ip_ratio=1.40 / aq=1:1.00
  26. Language                                 : English
  27. Default                                  : Yes
  28. Forced                                   : No

  29. Audio
  30. ID                                       : 2
  31. Format                                   : DTS
  32. Format/Info                              : Digital Theater Systems
  33. Codec ID                                 : A_DTS
  34. Duration                                 : 1 h 30 min
  35. Bit rate mode                            : Constant
  36. Bit rate                                 : 1 509 kb/s
  37. Channel(s)                               : 2 channels
  38. Channel layout                           : L R
  39. Sampling rate                            : 48.0 kHz
  40. Frame rate                               : 93.750 FPS (512 SPF)
  41. Bit depth                                : 24 bits
  42. Compression mode                         : Lossy
  43. Stream size                              : 974 MiB (12%)
  44. Title                                    : Group.Marriage.1973.1080p.BluRay.x264.DTS-FGT
  45. Language                                 : English
  46. Default                                  : Yes
  47. Forced                                   : No

  48. Menu
  49. 00:00:00.000                             : en:Chapter 01
  50. 00:04:59.882                             : en:Chapter 02
  51. 00:11:23.432                             : en:Chapter 03
  52. 00:18:55.050                             : en:Chapter 04
  53. 00:24:39.644                             : en:Chapter 05
  54. 00:33:17.495                             : en:Chapter 06
  55. 00:38:12.039                             : en:Chapter 07
  56. 00:41:52.593                             : en:Chapter 08
  57. 00:49:18.038                             : en:Chapter 09
  58. 00:58:20.038                             : en:Chapter 10
  59. 01:07:35.885                             : en:Chapter 11
  60. 01:15:17.888                             : en:Chapter 12
  61. 01:23:05.814                             : en:Chapter 13
  62. 01:29:41.584                             : en:Chapter 14
复制代码

群婚 Group.Marriage.1973.1080p.BluRay.x264.DTS-FGT 8.20GB-2.png 群婚 Group.Marriage.1973.1080p.BluRay.x264.DTS-FGT 8.20GB-3.png 群婚 Group.Marriage.1973.1080p.BluRay.x264.DTS-FGT 8.20GB-4.png






回复

使用道具 举报

发表于 2020-5-23 21:45:39 | 显示全部楼层

楼主太厉害了!楼主,电影应该很好看我觉得蓝光电影网真是个好地方!
回复 支持 反对

使用道具 举报

懒得打字嘛,点击右侧快捷回复 【右侧内容,后台自定义】
您需要登录后才可以回帖 登录 | 立即加入

本版积分规则

现在加入蓝光电影网,注册一个账号
上个主题 下个主题 快速回复 收藏帖子 返回列表 客服中心 搜索

手机版|小黑屋| 蓝光电影网 |网站地图 

Copyright © 2015-2019 Comsenz Inc.  Template by 蓝光电影论坛 All Rights Reserved.

Powered by 蓝光电影网 X3.4

特别声明:本站所有资源均由网上收集而来,版权归原影音公司所有,如果侵犯了你的权益,请通知我们,我们会及时删除侵权内容.

快速回复 返回顶部 返回列表