找回密码

蓝光电影网

查看: 70|回复: 0

[惊悚] 恐怖屋 House.Of.Horrors.1946.1080p.BluRay.x264.DTS-FGT 5.63GB

[复制链接]

 成长值: 26140

发表于 2020-5-23 00:20:22 | 显示全部楼层 |阅读模式
恐怖屋 House.Of.Horrors.1946.1080p.BluRay.x264.DTS-FGT 5.63GB-1.png

译  名 恐怖屋
片  名 House of Horrors
年  代 1946
产  地 美国
类  别 惊悚 / 恐怖
语  言 英语
上映日期 1946
IMDb评分  6.2/10 from 702 users
IMDb链接  https://www.imdb.com/title/tt0038621
豆瓣评分 0/10 from 0 users
豆瓣链接 https://movie.douban.com/subject/5067790/
片  长 65 分钟
导  演 Jean Yarbrough
编  剧 Dwight V. Babcock
主  演 兰道·哈顿 Rondo Hatton
       Robert Lowery
       弗吉尼亚·格雷 Virginia Grey
       比尔·戈德温 Bill Goodwin
       Martin Kosleck
       阿兰·纳皮尔 Alan Napier
       Howard Freeman
       弗吉尼亚克里斯汀 Virginia Christine
       Joan Shawlee


标  签 美国电影 | 恐怖 | UniversalClassicMonsters | 1940s | 美国 | 惊悚 | 不是默片

简  介  

  暂无相关剧情介绍
  1. Video
  2. ID                                       : 1
  3. Format                                   : AVC
  4. Format/Info                              : Advanced Video Codec
  5. Format profile                           : High@L4
  6. Format settings                          : CABAC / 4 Ref Frames
  7. Format settings, CABAC                   : Yes
  8. Format settings, Reference frames        : 4 frames
  9. Codec ID                                 : V_MPEG4/ISO/AVC
  10. Duration                                 : 1 h 5 min
  11. Bit rate                                 : 11.5 Mb/s
  12. Width                                    : 1 480 pixels
  13. Height                                   : 1 080 pixels
  14. Display aspect ratio                     : 1.370
  15. Frame rate mode                          : Constant
  16. Frame rate                               : 23.976 (24000/1001/189150) FPS
  17. Color space                              : YUV
  18. Chroma subsampling                       : 4:2:0
  19. Bit depth                                : 8 bits
  20. Scan type                                : Progressive
  21. Bits/(Pixel*Frame)                       : 0.300
  22. Stream size                              : 5.27 GiB (94%)
  23. Title                                    : House.Of.Horrors.1946.1080p.BluRay.x264.DTS-FGT
  24. Writing library                          : x264 core 148 r2795M aaa9aa8
  25. Encoding settings                        : cabac=1 / ref=4 / deblock=1:-2:-2 / analyse=0x3:0x113 / me=umh / subme=9 / psy=1 / psy_rd=1.00:0.15 / mixed_ref=1 / me_range=16 / chroma_me=1 / trellis=2 / 8x8dct=1 / cqm=0 / deadzone=21,11 / fast_pskip=1 / chroma_qp_offset=-3 / threads=24 / lookahead_threads=3 / sliced_threads=0 / nr=0 / decimate=1 / interlaced=0 / bluray_compat=0 / constrained_intra=0 / bframes=3 / b_pyramid=2 / b_adapt=1 / b_bias=0 / direct=3 / weightb=1 / open_gop=0 / weightp=2 / keyint=250 / keyint_min=25 / scenecut=40 / intra_refresh=0 / rc_lookahead=50 / rc=2pass / mbtree=1 / bitrate=11500 / ratetol=1.0 / qcomp=0.60 / qpmin=0 / qpmax=69 / qpstep=4 / cplxblur=20.0 / qblur=0.5 / vbv_maxrate=31250 / vbv_bufsize=31250 / nal_hrd=none / filler=0 / ip_ratio=1.40 / aq=1:1.00
  26. Language                                 : English
  27. Default                                  : Yes
  28. Forced                                   : No

  29. Audio
  30. ID                                       : 2
  31. ID in the original source medium         : 4352 (0x1100)
  32. Format                                   : DTS
  33. Format/Info                              : Digital Theater Systems
  34. Codec ID                                 : A_DTS
  35. Duration                                 : 1 h 5 min
  36. Bit rate mode                            : Constant
  37. Bit rate                                 : 768 kb/s
  38. Channel(s)                               : 1 channel
  39. Channel layout                           : C
  40. Sampling rate                            : 48.0 kHz
  41. Frame rate                               : 93.750 FPS (512 SPF)
  42. Bit depth                                : 24 bits
  43. Compression mode                         : Lossy
  44. Stream size                              : 361 MiB (6%)
  45. Title                                    : House.Of.Horrors.1946.1080p.BluRay.x264.DTS-FGT
  46. Language                                 : English
  47. Default                                  : Yes
  48. Forced                                   : No
  49. Original source medium                   : Blu-ray

  50. Text
  51. ID                                       : 3
  52. Format                                   : UTF-8
  53. Codec ID                                 : S_TEXT/UTF8
  54. Codec ID/Info                            : UTF-8 Plain Text
  55. Duration                                 : 1 h 3 min
  56. Bit rate                                 : 75 b/s
  57. Count of elements                        : 1080
  58. Stream size                              : 35.0 KiB (0%)
  59. Language                                 : English
  60. Default                                  : Yes
  61. Forced                                   : No

  62. Menu
  63. 00:00:00.000                             : en:Chapter 01
  64. 00:06:10.953                             : en:Chapter 02
  65. 00:12:03.305                             : en:Chapter 03
  66. 00:16:01.168                             : en:Chapter 04
  67. 00:21:19.987                             : en:Chapter 05
  68. 00:27:04.080                             : en:Chapter 06
  69. 00:33:35.430                             : en:Chapter 07
  70. 00:39:00.171                             : en:Chapter 08
  71. 00:43:42.536                             : en:Chapter 09
  72. 00:49:14.242                             : en:Chapter 10
  73. 00:54:12.749                             : en:Chapter 11
  74. 00:58:07.859                             : en:Chapter 12
复制代码

恐怖屋 House.Of.Horrors.1946.1080p.BluRay.x264.DTS-FGT 5.63GB-2.png 恐怖屋 House.Of.Horrors.1946.1080p.BluRay.x264.DTS-FGT 5.63GB-3.png 恐怖屋 House.Of.Horrors.1946.1080p.BluRay.x264.DTS-FGT 5.63GB-4.png






回复

使用道具 举报

懒得打字嘛,点击右侧快捷回复 【右侧内容,后台自定义】
您需要登录后才可以回帖 登录 | 立即加入

本版积分规则

现在加入蓝光电影网,注册一个账号
上个主题 下个主题 快速回复 收藏帖子 返回列表 客服中心 搜索

手机版|小黑屋| 蓝光电影网 |网站地图 

Copyright © 2015-2019 Comsenz Inc.  Template by 蓝光电影论坛 All Rights Reserved.

Powered by 蓝光电影网 X3.4

特别声明:本站所有资源均由网上收集而来,版权归原影音公司所有,如果侵犯了你的权益,请通知我们,我们会及时删除侵权内容.

快速回复 返回顶部 返回列表