找回密码

蓝光电影网

查看: 133|回复: 1

[惊悚] 开膛手杰克 Jack.The.Ripper.1976.GERMAN.1080p.BluRay.x264.DTS-FGT 9.33GB

[复制链接]

 成长值: 26140

发表于 2020-5-23 00:18:07 | 显示全部楼层 |阅读模式
p2569456759.jpg

译  名 开膛手杰克
片  名 Jack the Ripper
年  代 1976
产  地 瑞士 / 西德
类  别 惊悚 / 恐怖 / 犯罪
语  言 德语
上映日期 1976-09-23
IMDb评分  5.5/10 from 1441 users
IMDb链接  https://www.imdb.com/title/tt0074408
豆瓣评分 6.5/10 from 509 users
豆瓣链接 https://movie.douban.com/subject/1303673/
片  长 92 分钟
导  演 Jesus Franco
编  剧 Jesus Franco
主  演 Klaus Kinski
       Josephine Chaplin
       Lina Romay
       Andreas Mannkopff
       Herbert Fux


标  签 恐怖 | 开膛手杰克 | 犯罪 | 犯罪心理 | 惊悚 | 瑞士 | 1976 | JesusFranco

简  介  

  一部关于19世纪伦敦臭名昭著的开膛手杰克的电影,这个版本换成了一个擅长拍摄恐怖片的导演,晚上出行动专门残杀害妓女,也假扮妓女来诱骗他,但另结局却出人意料之中。
  1. Video
  2. ID                                       : 1
  3. Format                                   : AVC
  4. Format/Info                              : Advanced Video Codec
  5. Format profile                           : High@L4
  6. Format settings                          : CABAC / 4 Ref Frames
  7. Format settings, CABAC                   : Yes
  8. Format settings, Reference frames        : 4 frames
  9. Codec ID                                 : V_MPEG4/ISO/AVC
  10. Duration                                 : 1 h 31 min
  11. Bit rate                                 : 11.5 Mb/s
  12. Width                                    : 1 920 pixels
  13. Height                                   : 1 080 pixels
  14. Display aspect ratio                     : 16:9
  15. Frame rate mode                          : Constant
  16. Frame rate                               : 24.000 FPS
  17. Color space                              : YUV
  18. Chroma subsampling                       : 4:2:0
  19. Bit depth                                : 8 bits
  20. Scan type                                : Progressive
  21. Bits/(Pixel*Frame)                       : 0.231
  22. Stream size                              : 7.39 GiB (79%)
  23. Title                                    : Jack.The.Ripper.1976.GERMAN.1080p.BluRay.x264.DTS-FGT
  24. Writing library                          : x264 core 148 r2795M aaa9aa8
  25. Encoding settings                        : cabac=1 / ref=4 / deblock=1:-2:-2 / analyse=0x3:0x113 / me=umh / subme=9 / psy=1 / psy_rd=1.00:0.15 / mixed_ref=1 / me_range=16 / chroma_me=1 / trellis=2 / 8x8dct=1 / cqm=0 / deadzone=21,11 / fast_pskip=1 / chroma_qp_offset=-3 / threads=24 / lookahead_threads=3 / sliced_threads=0 / nr=0 / decimate=1 / interlaced=0 / bluray_compat=0 / constrained_intra=0 / bframes=3 / b_pyramid=2 / b_adapt=1 / b_bias=0 / direct=3 / weightb=1 / open_gop=0 / weightp=2 / keyint=250 / keyint_min=25 / scenecut=40 / intra_refresh=0 / rc_lookahead=50 / rc=2pass / mbtree=1 / bitrate=11500 / ratetol=1.0 / qcomp=0.60 / qpmin=0 / qpmax=69 / qpstep=4 / cplxblur=20.0 / qblur=0.5 / vbv_maxrate=31250 / vbv_bufsize=31250 / nal_hrd=none / filler=0 / ip_ratio=1.40 / aq=1:1.00
  26. Default                                  : Yes
  27. Forced                                   : No

  28. Audio #1
  29. ID                                       : 2
  30. Format                                   : DTS
  31. Format/Info                              : Digital Theater Systems
  32. Codec ID                                 : A_DTS
  33. Duration                                 : 1 h 31 min
  34. Bit rate mode                            : Constant
  35. Bit rate                                 : 1 509 kb/s
  36. Channel(s)                               : 6 channels
  37. Channel layout                           : C L R Ls Rs LFE
  38. Sampling rate                            : 48.0 kHz
  39. Frame rate                               : 93.750 FPS (512 SPF)
  40. Bit depth                                : 24 bits
  41. Compression mode                         : Lossy
  42. Stream size                              : 992 MiB (10%)
  43. Title                                    : Jack.The.Ripper.1976.GERMAN.1080p.BluRay.x264.DTS-FGT
  44. Language                                 : German
  45. Default                                  : Yes
  46. Forced                                   : No

  47. Audio #2
  48. ID                                       : 3
  49. Format                                   : DTS
  50. Format/Info                              : Digital Theater Systems
  51. Codec ID                                 : A_DTS
  52. Duration                                 : 1 h 31 min
  53. Bit rate mode                            : Constant
  54. Bit rate                                 : 1 509 kb/s
  55. Channel(s)                               : 6 channels
  56. Channel layout                           : C L R Ls Rs LFE
  57. Sampling rate                            : 48.0 kHz
  58. Frame rate                               : 93.750 FPS (512 SPF)
  59. Bit depth                                : 24 bits
  60. Compression mode                         : Lossy
  61. Stream size                              : 992 MiB (10%)
  62. Title                                    : Jack.The.Ripper.1976.GERMAN.1080p.BluRay.x264.DTS-FGT
  63. Language                                 : English
  64. Default                                  : No
  65. Forced                                   : No

  66. Text
  67. ID                                       : 4
  68. Format                                   : UTF-8
  69. Codec ID                                 : S_TEXT/UTF8
  70. Codec ID/Info                            : UTF-8 Plain Text
  71. Duration                                 : 1 h 31 min
  72. Bit rate                                 : 44 b/s
  73. Count of elements                        : 729
  74. Stream size                              : 29.7 KiB (0%)
  75. Language                                 : English
  76. Default                                  : Yes
  77. Forced                                   : No

  78. Menu
  79. 00:00:00.000                             : en:Chapter 1
  80. 00:04:52.000                             : en:Chapter 2
  81. 00:05:39.000                             : en:Chapter 3
  82. 00:07:56.583                             : en:Chapter 4
  83. 00:12:45.000                             : en:Chapter 5
  84. 00:17:01.958                             : en:Chapter 6
  85. 00:17:44.750                             : en:Chapter 7
  86. 00:25:35.417                             : en:Chapter 8
  87. 00:35:20.000                             : en:Chapter 9
  88. 00:39:37.417                             : en:Chapter 10
  89. 00:43:50.500                             : en:Chapter 11
  90. 00:51:54.000                             : en:Chapter 12
  91. 00:53:25.875                             : en:Chapter 13
  92. 00:55:47.000                             : en:Chapter 14
  93. 00:59:01.750                             : en:Chapter 15
  94. 01:05:32.417                             : en:Chapter 16
  95. 01:08:52.667                             : en:Chapter 17
  96. 01:14:18.875                             : en:Chapter 18
  97. 01:23:38.667                             : en:Chapter 19
  98. 01:29:41.167                             : en:Chapter 20
复制代码

开膛手杰克 Jack.The.Ripper.1976.GERMAN.1080p.BluRay.x264.DTS-FGT 9.33GB-1.png 开膛手杰克 Jack.The.Ripper.1976.GERMAN.1080p.BluRay.x264.DTS-FGT 9.33GB-2.png 开膛手杰克 Jack.The.Ripper.1976.GERMAN.1080p.BluRay.x264.DTS-FGT 9.33GB-3.png






回复

使用道具 举报

懒得打字嘛,点击右侧快捷回复 【右侧内容,后台自定义】
您需要登录后才可以回帖 登录 | 立即加入

本版积分规则

现在加入蓝光电影网,注册一个账号
上个主题 下个主题 快速回复 收藏帖子 返回列表 客服中心 搜索

手机版|小黑屋| 蓝光电影网 |网站地图 

Copyright © 2015-2019 Comsenz Inc.  Template by 蓝光电影论坛 All Rights Reserved.

Powered by 蓝光电影网 X3.4

特别声明:本站所有资源均由网上收集而来,版权归原影音公司所有,如果侵犯了你的权益,请通知我们,我们会及时删除侵权内容.

快速回复 返回顶部 返回列表