找回密码

蓝光电影网

查看: 83|回复: 0

[剧情] 路德维希二世 Ludwig.II.2012.GERMAN.1080p.BluRay.x264.DTS-FGT 12.99GB

[复制链接]

 成长值: 26140

发表于 2020-5-23 00:16:14 | 显示全部楼层 |阅读模式
路德维希二世 Ludwig.II.2012.GERMAN.1080p.BluRay.x264.DTS-FGT 12.99GB-1.png

译  名 路德维希二世
片  名 Ludwig II
年  代 2012
产  地 德国
类  别 剧情 / 历史
语  言 德语
上映日期 2012-12-26
IMDb评分  6.1/10 from 719 users
IMDb链接  https://www.imdb.com/title/tt2180463
豆瓣评分 7.6/10 from 917 users
豆瓣链接 https://movie.douban.com/subject/11625432/
片  长 140分钟
导  演 Marie Noelle / Peter Sehr
编  剧 Marie Noelle / Peter Sehr
主  演 Sabin Tambrea
       塞巴斯蒂安·施普尔 Sebastian Schipper
       汉娜·赫斯普朗 Hannah Herzsprung
       Tom Schilling
       葆拉·贝尔 Paula Beer


标  签 德国 | 传记 | 历史 | 德国电影 | Ludwig | 2012 | TomSchilling | 电影

简  介  

  巴伐利亚「童话国王」戏剧性一生,曾被维斯康堤拍成《诸神的黄昏》,传奇再度搬上银幕。爱美的路德维希二世醉心华格纳歌剧,十八岁登基,企图以音乐化解干戈,以浪漫热情追求艺术寻觅自由。但战争迫在眉睫,他的梦想世界不被理解。和平梦碎,辱国丧权,压抑的同性爱欲更咬噬着他的敏感心灵。晚年孤僻离群,执着于斥巨资修建奢华城堡,务求在眼前实现童话王国,却被当成疯子看待。男主角演绎翩翩美少年的路德维希二世入型入格,布景美轮美奂,风光如画的凡尔赛宫、新天鹅堡等尽入眼帘。QAF

获奖情况  

  第63届德国电影奖(2013)
  最佳男主角(提名) 萨宾·塔布瑞亚
  1. Video
  2. ID                                       : 1
  3. Format                                   : AVC
  4. Format/Info                              : Advanced Video Codec
  5. Format profile                           : High@L4
  6. Format settings                          : CABAC / 4 Ref Frames
  7. Format settings, CABAC                   : Yes
  8. Format settings, Reference frames        : 4 frames
  9. Codec ID                                 : V_MPEG4/ISO/AVC
  10. Duration                                 : 2 h 22 min
  11. Bit rate                                 : 11.5 Mb/s
  12. Width                                    : 1 920 pixels
  13. Height                                   : 816 pixels
  14. Display aspect ratio                     : 2.35:1
  15. Frame rate mode                          : Constant
  16. Frame rate                               : 23.976 (24000/1001/189150) FPS
  17. Color space                              : YUV
  18. Chroma subsampling                       : 4:2:0
  19. Bit depth                                : 8 bits
  20. Scan type                                : Progressive
  21. Bits/(Pixel*Frame)                       : 0.306
  22. Stream size                              : 11.5 GiB (88%)
  23. Title                                    : Ludwig.II.2012.GERMAN.1080p.BluRay.x264.DTS-FGT
  24. Writing library                          : x264 core 148 r2748 97eaef2
  25. Encoding settings                        : cabac=1 / ref=4 / deblock=1:-2:-2 / analyse=0x3:0x113 / me=umh / subme=9 / psy=1 / psy_rd=1.00:0.15 / mixed_ref=1 / me_range=16 / chroma_me=1 / trellis=2 / 8x8dct=1 / cqm=0 / deadzone=21,11 / fast_pskip=1 / chroma_qp_offset=-3 / threads=24 / lookahead_threads=3 / sliced_threads=0 / nr=0 / decimate=1 / interlaced=0 / bluray_compat=0 / constrained_intra=0 / bframes=3 / b_pyramid=2 / b_adapt=1 / b_bias=0 / direct=3 / weightb=1 / open_gop=0 / weightp=2 / keyint=250 / keyint_min=25 / scenecut=40 / intra_refresh=0 / rc_lookahead=50 / rc=2pass / mbtree=1 / bitrate=11500 / ratetol=1.0 / qcomp=0.60 / qpmin=0 / qpmax=69 / qpstep=4 / cplxblur=20.0 / qblur=0.5 / vbv_maxrate=31250 / vbv_bufsize=31250 / nal_hrd=none / filler=0 / ip_ratio=1.40 / aq=1:1.00
  26. Language                                 : German
  27. Default                                  : Yes
  28. Forced                                   : No

  29. Audio
  30. ID                                       : 2
  31. Format                                   : DTS
  32. Format/Info                              : Digital Theater Systems
  33. Codec ID                                 : A_DTS
  34. Duration                                 : 2 h 22 min
  35. Bit rate mode                            : Constant
  36. Bit rate                                 : 1 509 kb/s
  37. Channel(s)                               : 6 channels
  38. Channel layout                           : C L R Ls Rs LFE
  39. Sampling rate                            : 48.0 kHz
  40. Frame rate                               : 93.750 FPS (512 SPF)
  41. Bit depth                                : 24 bits
  42. Compression mode                         : Lossy
  43. Stream size                              : 1.51 GiB (12%)
  44. Title                                    : Ludwig.II.2012.GERMAN.1080p.BluRay.x264.DTS-FGT
  45. Language                                 : German
  46. Default                                  : Yes
  47. Forced                                   : No

  48. Text
  49. ID                                       : 3
  50. Format                                   : UTF-8
  51. Codec ID                                 : S_TEXT/UTF8
  52. Codec ID/Info                            : UTF-8 Plain Text
  53. Duration                                 : 2 h 14 min
  54. Bit rate                                 : 64 b/s
  55. Count of elements                        : 1765
  56. Stream size                              : 63.4 KiB (0%)
  57. Language                                 : English
  58. Default                                  : Yes
  59. Forced                                   : No

  60. Menu
  61. 00:00:00.000                             : en:Chapter 01
  62. 00:12:03.639                             : en:Chapter 02
  63. 00:25:07.797                             : en:Chapter 03
  64. 00:36:38.696                             : en:Chapter 04
  65. 00:50:19.558                             : en:Chapter 05
  66. 01:03:11.245                             : en:Chapter 06
  67. 01:17:08.665                             : en:Chapter 07
  68. 01:30:29.924                             : en:Chapter 08
  69. 01:43:47.387                             : en:Chapter 09
  70. 01:52:11.683                             : en:Chapter 10
  71. 02:00:08.618                             : en:Chapter 11
  72. 02:11:36.346                             : en:Chapter 12
复制代码

路德维希二世 Ludwig.II.2012.GERMAN.1080p.BluRay.x264.DTS-FGT 12.99GB-2.png 路德维希二世 Ludwig.II.2012.GERMAN.1080p.BluRay.x264.DTS-FGT 12.99GB-3.png 路德维希二世 Ludwig.II.2012.GERMAN.1080p.BluRay.x264.DTS-FGT 12.99GB-4.png






回复

使用道具 举报

懒得打字嘛,点击右侧快捷回复 【右侧内容,后台自定义】
您需要登录后才可以回帖 登录 | 立即加入

本版积分规则

现在加入蓝光电影网,注册一个账号
上个主题 下个主题 快速回复 收藏帖子 返回列表 客服中心 搜索

手机版|小黑屋| 蓝光电影网 |网站地图 

Copyright © 2015-2019 Comsenz Inc.  Template by 蓝光电影论坛 All Rights Reserved.

Powered by 蓝光电影网 X3.4

特别声明:本站所有资源均由网上收集而来,版权归原影音公司所有,如果侵犯了你的权益,请通知我们,我们会及时删除侵权内容.

快速回复 返回顶部 返回列表