找回密码

蓝光电影网

查看: 109|回复: 2

[动画] 鲁邦三世:燃烧的斩铁剑 Lupin.III.Dragon.Of.Doom.1994.JAPANESE.1080p.BluRay.x264.DTS-FGT 8.31GB

[复制链接]

 成长值: 26140

发表于 2020-5-23 00:15:25 | 显示全部楼层 |阅读模式
鲁邦三世:燃烧的斩铁剑 Lupin.III.Dragon.Of.Doom.1994.JAPANESE.1080p.BluRay.x264.DTS-FGT 8.31GB-1.png

译  名 鲁邦三世:燃烧的斩铁剑 / Lupin the Third: Dragon of Doom / Rupan sansei: Moeyo zantetsuken
片  名 ルパン三世 燃えよ斬鉄剣
年  代 1994
产  地 日本
类  别 喜剧 / 动作 / 动画 / 犯罪 / 冒险
语  言 英语 / 法语 / 德语 / 意大利语 / 日语
上映日期 1994-07-29
IMDb评分  6.9/10 from 290 users
IMDb链接  https://www.imdb.com/title/tt0450493
豆瓣评分 8.2/10 from 526 users
豆瓣链接 https://movie.douban.com/subject/3268049/
片  长 90分钟
导  演 奥胁雅晴 Okuwaki Masaharu
编  剧 加藤一彦 Monkey Punch / 岸间信明 Nobuaki Kishima
主  演 山田康雄 Yasuo Yamada
       小林清志 Kiyoshi Kobayashi
       井上真树夫 Makio Inoue
       增山江威子 Eiko Masuyama
       纳谷悟朗 Gor? Naya
       泷口顺平 Junpei Takiguchi
       银河万丈 Banj? Ginga
       松井菜樱子 Naoko Matsui
       茶风林 Chaf?rin
       岩田安生 Yasuo Iwata
       中田和宏 Kazuhiro Nakata
       定冈小百合 Sadaoka Sayuri
       冈村明美 Akemi Okamura
       长岛雄一 Y?ichi Nagashima
       中博史 Hiroshi Naka
       落合弘治 Ochiai Kouji


标  签 鲁邦三世 | 日本 | 动画 | 日本动画 | 剧场版 | 动漫 | 冒险 | ルパン三世

简  介  

  鲁邦这次要在茫茫大海上偷取他的祖父亚森罗宾没能得手的宝物“卧龙雕”。宝物离他只有短短不到四千米。不过,是指垂直向下的深度……
  本作是鲁邦三世第六部TVsp作品,于1994年7月29日放送。亦是山田康雄先生担任鲁邦声优的最后一部,他于次年3月因病去世。
  1. Video
  2. ID                                       : 1
  3. Format                                   : AVC
  4. Format/Info                              : Advanced Video Codec
  5. Format profile                           : High@L4
  6. Format settings                          : CABAC / 4 Ref Frames
  7. Format settings, CABAC                   : Yes
  8. Format settings, Reference frames        : 4 frames
  9. Codec ID                                 : V_MPEG4/ISO/AVC
  10. Duration                                 : 1 h 30 min
  11. Bit rate                                 : 11.5 Mb/s
  12. Width                                    : 1 440 pixels
  13. Height                                   : 1 080 pixels
  14. Display aspect ratio                     : 4:3
  15. Frame rate mode                          : Constant
  16. Frame rate                               : 23.976 (24000/1001/189150) FPS
  17. Color space                              : YUV
  18. Chroma subsampling                       : 4:2:0
  19. Bit depth                                : 8 bits
  20. Scan type                                : Progressive
  21. Bits/(Pixel*Frame)                       : 0.308
  22. Stream size                              : 7.24 GiB (87%)
  23. Title                                    : Lupin.III.Dragon.Of.Doom.1994.JAPANESE.1080p.BluRay.x264.DTS-FGT
  24. Writing library                          : x264 core 148 r2748 97eaef2
  25. Encoding settings                        : cabac=1 / ref=4 / deblock=1:1:1 / analyse=0x3:0x113 / me=umh / subme=8 / psy=1 / psy_rd=0.50:0.00 / mixed_ref=1 / me_range=32 / chroma_me=1 / trellis=2 / 8x8dct=1 / cqm=0 / deadzone=21,11 / fast_pskip=1 / chroma_qp_offset=-2 / threads=34 / lookahead_threads=3 / sliced_threads=0 / nr=0 / decimate=1 / interlaced=0 / bluray_compat=0 / constrained_intra=0 / bframes=3 / b_pyramid=2 / b_adapt=1 / b_bias=0 / direct=3 / weightb=1 / open_gop=0 / weightp=2 / keyint=240 / keyint_min=24 / scenecut=40 / intra_refresh=0 / rc_lookahead=50 / rc=2pass / mbtree=1 / bitrate=11500 / ratetol=1.0 / qcomp=0.60 / qpmin=0 / qpmax=69 / qpstep=4 / cplxblur=20.0 / qblur=0.5 / vbv_maxrate=31250 / vbv_bufsize=31250 / nal_hrd=none / filler=0 / ip_ratio=1.40 / aq=3:0.60
  26. Default                                  : Yes
  27. Forced                                   : No

  28. Audio #1
  29. ID                                       : 2
  30. Format                                   : DTS
  31. Format/Info                              : Digital Theater Systems
  32. Codec ID                                 : A_DTS
  33. Duration                                 : 1 h 30 min
  34. Bit rate mode                            : Constant
  35. Bit rate                                 : 1 509 kb/s
  36. Channel(s)                               : 2 channels
  37. Channel layout                           : L R
  38. Sampling rate                            : 48.0 kHz
  39. Frame rate                               : 93.750 FPS (512 SPF)
  40. Bit depth                                : 16 bits
  41. Compression mode                         : Lossy
  42. Stream size                              : 973 MiB (11%)
  43. Title                                    : Lupin.III.Dragon.Of.Doom.1994.JAPANESE.1080p.BluRay.x264.DTS-FGT
  44. Language                                 : Japanese
  45. Default                                  : Yes
  46. Forced                                   : No

  47. Audio #2
  48. ID                                       : 3
  49. Format                                   : AC-3
  50. Format/Info                              : Audio Coding 3
  51. Commercial name                          : Dolby Digital
  52. Codec ID                                 : A_AC3
  53. Duration                                 : 1 h 30 min
  54. Bit rate mode                            : Constant
  55. Bit rate                                 : 192 kb/s
  56. Channel(s)                               : 2 channels
  57. Channel layout                           : L R
  58. Sampling rate                            : 48.0 kHz
  59. Frame rate                               : 31.250 FPS (1536 SPF)
  60. Bit depth                                : 16 bits
  61. Compression mode                         : Lossy
  62. Stream size                              : 124 MiB (1%)
  63. Title                                    : Lupin.III.Dragon.Of.Doom.1994.JAPANESE.1080p.BluRay.x264.DTS-FGT
  64. Language                                 : English
  65. Service kind                             : Complete Main
  66. Default                                  : No
  67. Forced                                   : No

  68. Text
  69. ID                                       : 4
  70. Format                                   : UTF-8
  71. Codec ID                                 : S_TEXT/UTF8
  72. Codec ID/Info                            : UTF-8 Plain Text
  73. Duration                                 : 1 h 29 min
  74. Bit rate                                 : 42 b/s
  75. Count of elements                        : 949
  76. Stream size                              : 28.2 KiB (0%)
  77. Language                                 : English
  78. Default                                  : Yes
  79. Forced                                   : No

  80. Menu
  81. 00:00:00.000                             : en:Chapter 01
  82. 00:03:59.364                             : en:Chapter 02
  83. 00:10:13.653                             : en:Chapter 03
  84. 00:17:04.019                             : en:Chapter 04
  85. 00:23:09.384                             : en:Chapter 05
  86. 00:38:20.380                             : en:Chapter 06
  87. 00:50:43.039                             : en:Chapter 07
  88. 00:56:43.650                             : en:Chapter 08
  89. 01:05:40.061                             : en:Chapter 09
  90. 01:11:27.908                             : en:Chapter 10
  91. 01:13:29.822                             : en:Chapter 11
  92. 01:22:36.868                             : en:Chapter 12
  93. 01:28:00.774                             : en:Chapter 13
复制代码

鲁邦三世:燃烧的斩铁剑 Lupin.III.Dragon.Of.Doom.1994.JAPANESE.1080p.BluRay.x264.DTS-FGT 8.31GB-2.png 鲁邦三世:燃烧的斩铁剑 Lupin.III.Dragon.Of.Doom.1994.JAPANESE.1080p.BluRay.x264.DTS-FGT 8.31GB-3.png 鲁邦三世:燃烧的斩铁剑 Lupin.III.Dragon.Of.Doom.1994.JAPANESE.1080p.BluRay.x264.DTS-FGT 8.31GB-4.png






回复

使用道具 举报

发表于 2020-5-23 08:15:49 来自手机 | 显示全部楼层
第三部鲁邦三世
回复 支持 反对

使用道具 举报

发表于 2020-5-23 11:12:42 | 显示全部楼层
居然连这个都有
回复 支持 反对

使用道具 举报

懒得打字嘛,点击右侧快捷回复 【右侧内容,后台自定义】
您需要登录后才可以回帖 登录 | 立即加入

本版积分规则

现在加入蓝光电影网,注册一个账号
上个主题 下个主题 快速回复 收藏帖子 返回列表 客服中心 搜索

手机版|小黑屋| 蓝光电影网 |网站地图 

Copyright © 2015-2019 Comsenz Inc.  Template by 蓝光电影论坛 All Rights Reserved.

Powered by 蓝光电影网 X3.4

特别声明:本站所有资源均由网上收集而来,版权归原影音公司所有,如果侵犯了你的权益,请通知我们,我们会及时删除侵权内容.

快速回复 返回顶部 返回列表