找回密码

蓝光电影网

查看: 116|回复: 1

[剧情] 体操小公主/体操女孩麦基纳 McKenna.Shoots.for.the.Stars.2012.1080p.BluRay.x264.DTS-FGT 8.53GB

[复制链接]

 成长值: 26140

发表于 2020-5-23 00:14:16 | 显示全部楼层 |阅读模式
体操小公主/体操女孩麦基纳 McKenna.Shoots.for.the.Stars.2012.1080p.BluRay.x264.DTS-FGT 8.53GB-1.png

译  名 体操小公主 / 体操女孩麦基纳
片  名 McKenna Shoots for the Stars
年  代 2012
产  地 美国
类  别 剧情
语  言 英语
上映日期 2012-07-03
IMDb评分  5.8/10 from 659 users
IMDb链接  https://www.imdb.com/title/tt1969175
豆瓣评分 0/10 from 0 users
豆瓣链接 https://movie.douban.com/subject/10608260/
片  长 91分钟
导  演 Vince Marcello
主  演 Jade Pettyjohn
       Ysa Penarejo
       Kally Berard


标  签 美国电影 | 爱心 | 青春、梦想、友情 | 美国 | 我的标签 | 2012 | jfhg | 芝加哥

简  介  

  一个女孩表演体操时把脚扭伤了,不能练体操,请了个老师,她不想让别人知道,因为老师,她和朋友吵架了。到拆石膏的日子,她陪老师去爱心马场骑马,老师坐着轮椅,比赛前她拆了石膏,这是什么电影,女孩好像叫麦金娜。
  1. Video
  2. ID                                       : 1
  3. Format                                   : AVC
  4. Format/Info                              : Advanced Video Codec
  5. Format profile                           : High@L4
  6. Format settings                          : CABAC / 4 Ref Frames
  7. Format settings, CABAC                   : Yes
  8. Format settings, Reference frames        : 4 frames
  9. Codec ID                                 : V_MPEG4/ISO/AVC
  10. Duration                                 : 1 h 33 min
  11. Bit rate                                 : 11.5 Mb/s
  12. Width                                    : 1 916 pixels
  13. Height                                   : 1 080 pixels
  14. Display aspect ratio                     : 16:9
  15. Frame rate mode                          : Constant
  16. Frame rate                               : 23.976 (24000/1001/189150) FPS
  17. Color space                              : YUV
  18. Chroma subsampling                       : 4:2:0
  19. Bit depth                                : 8 bits
  20. Scan type                                : Progressive
  21. Bits/(Pixel*Frame)                       : 0.232
  22. Stream size                              : 7.54 GiB (88%)
  23. Title                                    : McKenna.Shoots.for.the.Stars.2012.1080p.BluRay.x264.DTS-FGT
  24. Writing library                          : x264 core 148 r2795M aaa9aa8
  25. Encoding settings                        : cabac=1 / ref=4 / deblock=1:-2:-2 / analyse=0x3:0x113 / me=umh / subme=9 / psy=1 / psy_rd=1.00:0.15 / mixed_ref=1 / me_range=16 / chroma_me=1 / trellis=2 / 8x8dct=1 / cqm=0 / deadzone=21,11 / fast_pskip=1 / chroma_qp_offset=-3 / threads=24 / lookahead_threads=3 / sliced_threads=0 / nr=0 / decimate=1 / interlaced=0 / bluray_compat=0 / constrained_intra=0 / bframes=3 / b_pyramid=2 / b_adapt=1 / b_bias=0 / direct=3 / weightb=1 / open_gop=0 / weightp=2 / keyint=250 / keyint_min=25 / scenecut=40 / intra_refresh=0 / rc_lookahead=50 / rc=2pass / mbtree=1 / bitrate=11500 / ratetol=1.0 / qcomp=0.60 / qpmin=0 / qpmax=69 / qpstep=4 / cplxblur=20.0 / qblur=0.5 / vbv_maxrate=31250 / vbv_bufsize=31250 / nal_hrd=none / filler=0 / ip_ratio=1.40 / aq=1:1.00
  26. Language                                 : English
  27. Default                                  : Yes
  28. Forced                                   : No

  29. Audio
  30. ID                                       : 2
  31. ID in the original source medium         : 4352 (0x1100)
  32. Format                                   : DTS
  33. Format/Info                              : Digital Theater Systems
  34. Codec ID                                 : A_DTS
  35. Duration                                 : 1 h 33 min
  36. Bit rate mode                            : Constant
  37. Bit rate                                 : 1 509 kb/s
  38. Channel(s)                               : 6 channels
  39. Channel layout                           : C L R Ls Rs LFE
  40. Sampling rate                            : 48.0 kHz
  41. Frame rate                               : 93.750 FPS (512 SPF)
  42. Bit depth                                : 24 bits
  43. Compression mode                         : Lossy
  44. Stream size                              : 1 013 MiB (12%)
  45. Title                                    : McKenna.Shoots.for.the.Stars.2012.1080p.BluRay.x264.DTS-FGT
  46. Language                                 : English
  47. Default                                  : Yes
  48. Forced                                   : No
  49. Original source medium                   : Blu-ray

  50. Text
  51. ID                                       : 3
  52. Format                                   : UTF-8
  53. Codec ID                                 : S_TEXT/UTF8
  54. Codec ID/Info                            : UTF-8 Plain Text
  55. Duration                                 : 1 h 26 min
  56. Bit rate                                 : 58 b/s
  57. Count of elements                        : 1159
  58. Stream size                              : 37.0 KiB (0%)
  59. Language                                 : English
  60. Default                                  : Yes
  61. Forced                                   : No

  62. Menu
  63. 00:00:00.000                             : en:Chapter 01
  64. 00:03:49.354                             : en:Chapter 02
  65. 00:06:57.417                             : en:Chapter 03
  66. 00:10:58.616                             : en:Chapter 04
  67. 00:14:34.373                             : en:Chapter 05
  68. 00:20:29.436                             : en:Chapter 06
  69. 00:24:36.933                             : en:Chapter 07
  70. 00:26:40.849                             : en:Chapter 08
  71. 00:31:37.061                             : en:Chapter 09
  72. 00:37:54.438                             : en:Chapter 10
  73. 00:43:36.155                             : en:Chapter 11
  74. 00:46:25.365                             : en:Chapter 12
  75. 00:52:42.784                             : en:Chapter 13
  76. 00:59:42.412                             : en:Chapter 14
  77. 01:05:31.928                             : en:Chapter 15
  78. 01:12:17.750                             : en:Chapter 16
  79. 01:17:11.668                             : en:Chapter 17
  80. 01:20:24.444                             : en:Chapter 18
  81. 01:24:22.849                             : en:Chapter 19
  82. 01:30:29.048                             : en:Chapter 20
复制代码

体操小公主/体操女孩麦基纳 McKenna.Shoots.for.the.Stars.2012.1080p.BluRay.x264.DTS-FGT 8.53GB-2.png 体操小公主/体操女孩麦基纳 McKenna.Shoots.for.the.Stars.2012.1080p.BluRay.x264.DTS-FGT 8.53GB-3.png 体操小公主/体操女孩麦基纳 McKenna.Shoots.for.the.Stars.2012.1080p.BluRay.x264.DTS-FGT 8.53GB-4.png






回复

使用道具 举报

发表于 2020-5-23 00:16:05 | 显示全部楼层
Thanks for sharing
回复 支持 反对

使用道具 举报

懒得打字嘛,点击右侧快捷回复 【右侧内容,后台自定义】
您需要登录后才可以回帖 登录 | 立即加入

本版积分规则

现在加入蓝光电影网,注册一个账号
上个主题 下个主题 快速回复 收藏帖子 返回列表 客服中心 搜索

手机版|小黑屋| 蓝光电影网 |网站地图 

Copyright © 2015-2019 Comsenz Inc.  Template by 蓝光电影论坛 All Rights Reserved.

Powered by 蓝光电影网 X3.4

特别声明:本站所有资源均由网上收集而来,版权归原影音公司所有,如果侵犯了你的权益,请通知我们,我们会及时删除侵权内容.

快速回复 返回顶部 返回列表