找回密码

蓝光电影网

查看: 87|回复: 1

[喜剧] 达令是外国人 My.Darling.Is.A.Foreigner.2010.JAPANESE.1080p.BluRay.x264.DTS-FGT 9.09GB

[复制链接]

 成长值: 26140

发表于 2020-5-23 00:12:35 | 显示全部楼层 |阅读模式
达令是外国人 My.Darling.Is.A.Foreigner.2010.JAPANESE.1080p.BluRay.x264.DTS-FGT 9.09GB-1.png

译  名 达令是外国人 / My Darling is a Foreigner
片  名 ダーリンは外国人
年  代 2010
产  地 日本
类  别 喜剧
语  言 日语
上映日期 2010-04-10
IMDb评分  6.1/10 from 438 users
IMDb链接  https://www.imdb.com/title/tt1606197
豆瓣评分 6.5/10 from 3274 users
豆瓣链接 https://movie.douban.com/subject/4074179/
片  长 100分钟
导  演 宇恵和昭
编  剧 大岛里美 Satomi Oshima
主  演 井上真央
       Jonathan Sherr
       国仲涼子
       入江雅人
       川岡大次郎
       坂東工
       國村隼
       Patrick Harlan
       Dante Carver
       戸田菜穂
       大竹しのぶ


标  签 日本电影 | 日本 | 井上真央 | 爱情 | 2010 | 电影 | 日影 | 喜剧

简  介  

  梦想成为插画家的纱织(井上真央 饰)有个死穴,那就是极其不擅长英语,看到英语就会头疼。中学时期的某次英语考试甚至考出了4分的成绩。纱织认为自己今后都将不会和英语发生任何关系,结果却遇上了来自美国的作家托尼(Jonathan Sherr 饰)。托尼非常痴迷于各种语言,对汉字之美一直很向往,机缘巧合来到了日本,结果遇上了插画家纱织。一段异国恋就此展开。在恋爱的过程中,因为二人来自不同的国家,想法上有很多不同,但这不是矛盾,反而成为了二人进一步了解彼此的方法。在姐姐(国仲凉子 饰)的婚礼上,已同居的二人考虑到了结婚。但这似乎是一个麻烦的问题……
  本剧改编自小栗左多里的同名漫画,故事内容根据作者和其美籍爱人托尼的真实恋爱故事改编,充满动人的小情趣。
  1. Video
  2. ID                                       : 1
  3. Format                                   : AVC
  4. Format/Info                              : Advanced Video Codec
  5. Format profile                           : High@L4
  6. Format settings                          : CABAC / 4 Ref Frames
  7. Format settings, CABAC                   : Yes
  8. Format settings, Reference frames        : 4 frames
  9. Codec ID                                 : V_MPEG4/ISO/AVC
  10. Duration                                 : 1 h 40 min
  11. Bit rate                                 : 11.5 Mb/s
  12. Width                                    : 1 920 pixels
  13. Height                                   : 1 036 pixels
  14. Display aspect ratio                     : 1.85:1
  15. Frame rate mode                          : Constant
  16. Frame rate                               : 23.976 (24000/1001/189150) FPS
  17. Color space                              : YUV
  18. Chroma subsampling                       : 4:2:0
  19. Bit depth                                : 8 bits
  20. Scan type                                : Progressive
  21. Bits/(Pixel*Frame)                       : 0.241
  22. Stream size                              : 8.03 GiB (88%)
  23. Title                                    : My.Darling.Is.A.Foreigner.2010.JAPANESE.1080p.BluRay.x264.DTS-FGT
  24. Writing library                          : x264 core 148 r2795M aaa9aa8
  25. Encoding settings                        : cabac=1 / ref=4 / deblock=1:-2:-2 / analyse=0x3:0x113 / me=umh / subme=9 / psy=1 / psy_rd=1.00:0.15 / mixed_ref=1 / me_range=16 / chroma_me=1 / trellis=2 / 8x8dct=1 / cqm=0 / deadzone=21,11 / fast_pskip=1 / chroma_qp_offset=-3 / threads=24 / lookahead_threads=3 / sliced_threads=0 / nr=0 / decimate=1 / interlaced=0 / bluray_compat=0 / constrained_intra=0 / bframes=3 / b_pyramid=2 / b_adapt=1 / b_bias=0 / direct=3 / weightb=1 / open_gop=0 / weightp=2 / keyint=250 / keyint_min=25 / scenecut=40 / intra_refresh=0 / rc_lookahead=50 / rc=2pass / mbtree=1 / bitrate=11500 / ratetol=1.0 / qcomp=0.60 / qpmin=0 / qpmax=69 / qpstep=4 / cplxblur=20.0 / qblur=0.5 / vbv_maxrate=31250 / vbv_bufsize=31250 / nal_hrd=none / filler=0 / ip_ratio=1.40 / aq=1:1.00
  26. Language                                 : Japanese
  27. Default                                  : Yes
  28. Forced                                   : No

  29. Audio
  30. ID                                       : 2
  31. Format                                   : DTS
  32. Format/Info                              : Digital Theater Systems
  33. Codec ID                                 : A_DTS
  34. Duration                                 : 1 h 40 min
  35. Bit rate mode                            : Constant
  36. Bit rate                                 : 1 509 kb/s
  37. Channel(s)                               : 6 channels
  38. Channel layout                           : C L R Ls Rs LFE
  39. Sampling rate                            : 48.0 kHz
  40. Frame rate                               : 93.750 FPS (512 SPF)
  41. Bit depth                                : 16 bits
  42. Compression mode                         : Lossy
  43. Stream size                              : 1.05 GiB (12%)
  44. Title                                    : My.Darling.Is.A.Foreigner.2010.JAPANESE.1080p.BluRay.x264.DTS-FGT
  45. Language                                 : Japanese
  46. Default                                  : Yes
  47. Forced                                   : No

  48. Text
  49. ID                                       : 3
  50. Format                                   : UTF-8
  51. Codec ID                                 : S_TEXT/UTF8
  52. Codec ID/Info                            : UTF-8 Plain Text
  53. Duration                                 : 1 h 39 min
  54. Bit rate                                 : 25 b/s
  55. Count of elements                        : 803
  56. Stream size                              : 18.9 KiB (0%)
  57. Language                                 : English
  58. Default                                  : Yes
  59. Forced                                   : No

  60. Menu
  61. 00:00:00.000                             : en:??? 01 ???
  62. 00:05:34.292                             : en:??? 02 ???
  63. 00:11:14.006                             : en:??? 03 ???
  64. 00:15:34.767                             : en:??? 04 ???
  65. 00:19:14.903                             : en:??? 05 ???
  66. 00:24:34.181                             : en:??? 06 ???
  67. 00:29:14.878                             : en:??? 07 ???
  68. 00:35:14.695                             : en:??? 08 ???
  69. 00:39:23.277                             : en:??? 09 ???
  70. 00:44:11.482                             : en:??? 10 ???
  71. 00:49:50.988                             : en:??? 11 ???
  72. 00:55:17.105                             : en:??? 12 ???
  73. 01:00:31.002                             : en:??? 13 ???
  74. 01:04:38.875                             : en:??? 14 ???
  75. 01:11:21.485                             : en:??? 15 ???
  76. 01:15:56.468                             : en:??? 16 ???
  77. 01:21:47.152                             : en:??? 17 ???
  78. 01:26:57.086                             : en:??? 18 ???
  79. 01:30:09.404                             : en:??? 19 ???
  80. 01:34:15.691                             : en:??? 20 ???
复制代码

达令是外国人 My.Darling.Is.A.Foreigner.2010.JAPANESE.1080p.BluRay.x264.DTS-FGT 9.09GB-2.png 达令是外国人 My.Darling.Is.A.Foreigner.2010.JAPANESE.1080p.BluRay.x264.DTS-FGT 9.09GB-3.png 达令是外国人 My.Darling.Is.A.Foreigner.2010.JAPANESE.1080p.BluRay.x264.DTS-FGT 9.09GB-4.png






回复

使用道具 举报

发表于 2020-5-23 09:06:03 | 显示全部楼层

这个帖子不回对不起自己!我想我是一天也不能离开蓝光电影网
回复 支持 反对

使用道具 举报

懒得打字嘛,点击右侧快捷回复 【右侧内容,后台自定义】
您需要登录后才可以回帖 登录 | 立即加入

本版积分规则

现在加入蓝光电影网,注册一个账号
上个主题 下个主题 快速回复 收藏帖子 返回列表 客服中心 搜索

手机版|小黑屋| 蓝光电影网 |网站地图 

Copyright © 2015-2019 Comsenz Inc.  Template by 蓝光电影论坛 All Rights Reserved.

Powered by 蓝光电影网 X3.4

特别声明:本站所有资源均由网上收集而来,版权归原影音公司所有,如果侵犯了你的权益,请通知我们,我们会及时删除侵权内容.

快速回复 返回顶部 返回列表