找回密码

蓝光电影网

查看: 123|回复: 2

[剧情] 崛起 Rise.2014.1080p.BluRay.x264.DTS-FGT 9.33GB

[复制链接]

 成长值: 26140

发表于 2020-5-22 23:50:11 | 显示全部楼层 |阅读模式
p2210563665.jpg

译  名 崛起
片  名 Rise
年  代 2014
产  地 澳大利亚
类  别 剧情
语  言 英语
上映日期 2014-10-21
IMDb评分  5.8/10 from 695 users
IMDb链接  https://www.imdb.com/title/tt3213622
豆瓣评分 0/10 from 0 users
豆瓣链接 https://movie.douban.com/subject/26257539/
片  长 104分钟
导  演 Mack Lindon
编  剧 Mack Lindon
主  演 Jessica Green
       Nathan Wilson
       Martin Sacks
       Mary Rhone


标  签 澳洲 | WEB | 2014

简  介  

  Rise is a true story about a young nurse falsely accused of rape. Stripped of his career and his freedom, Will is forced to survive maximum security jail. The film centers on an unlikely friendship formed with Jimmy, a hardened armed robber and the legal battle by a prominent lawyer who must compromise status and wage to prove his innocence.
  1. Video
  2. ID                                       : 1
  3. Format                                   : AVC
  4. Format/Info                              : Advanced Video Codec
  5. Format profile                           : High@L4
  6. Format settings                          : CABAC / 4 Ref Frames
  7. Format settings, CABAC                   : Yes
  8. Format settings, Reference frames        : 4 frames
  9. Codec ID                                 : V_MPEG4/ISO/AVC
  10. Duration                                 : 1 h 42 min
  11. Bit rate                                 : 11.5 Mb/s
  12. Width                                    : 1 920 pixels
  13. Height                                   : 808 pixels
  14. Display aspect ratio                     : 2.40:1
  15. Frame rate mode                          : Constant
  16. Frame rate                               : 24.000 FPS
  17. Color space                              : YUV
  18. Chroma subsampling                       : 4:2:0
  19. Bit depth                                : 8 bits
  20. Scan type                                : Progressive
  21. Bits/(Pixel*Frame)                       : 0.309
  22. Stream size                              : 8.25 GiB (88%)
  23. Title                                    : Rise.2014.1080p.BluRay.x264.DTS-FGT
  24. Writing library                          : x264 core 148 r2795M aaa9aa8
  25. Encoding settings                        : cabac=1 / ref=4 / deblock=1:-2:-2 / analyse=0x3:0x113 / me=umh / subme=9 / psy=1 / psy_rd=1.00:0.15 / mixed_ref=1 / me_range=16 / chroma_me=1 / trellis=2 / 8x8dct=1 / cqm=0 / deadzone=21,11 / fast_pskip=1 / chroma_qp_offset=-3 / threads=24 / lookahead_threads=3 / sliced_threads=0 / nr=0 / decimate=1 / interlaced=0 / bluray_compat=0 / constrained_intra=0 / bframes=3 / b_pyramid=2 / b_adapt=1 / b_bias=0 / direct=3 / weightb=1 / open_gop=0 / weightp=2 / keyint=250 / keyint_min=25 / scenecut=40 / intra_refresh=0 / rc_lookahead=50 / rc=2pass / mbtree=1 / bitrate=11500 / ratetol=1.0 / qcomp=0.60 / qpmin=0 / qpmax=69 / qpstep=4 / cplxblur=20.0 / qblur=0.5 / vbv_maxrate=31250 / vbv_bufsize=31250 / nal_hrd=none / filler=0 / ip_ratio=1.40 / aq=1:1.00
  26. Language                                 : English
  27. Default                                  : Yes
  28. Forced                                   : No

  29. Audio
  30. ID                                       : 2
  31. Format                                   : DTS
  32. Format/Info                              : Digital Theater Systems
  33. Codec ID                                 : A_DTS
  34. Duration                                 : 1 h 42 min
  35. Bit rate mode                            : Constant
  36. Bit rate                                 : 1 509 kb/s
  37. Channel(s)                               : 6 channels
  38. Channel layout                           : C L R Ls Rs LFE
  39. Sampling rate                            : 48.0 kHz
  40. Frame rate                               : 93.750 FPS (512 SPF)
  41. Bit depth                                : 16 bits
  42. Compression mode                         : Lossy
  43. Stream size                              : 1.08 GiB (12%)
  44. Title                                    : Rise.2014.1080p.BluRay.x264.DTS-FGT
  45. Language                                 : English
  46. Default                                  : Yes
  47. Forced                                   : No

  48. Text #1
  49. ID                                       : 3
  50. Format                                   : UTF-8
  51. Codec ID                                 : S_TEXT/UTF8
  52. Codec ID/Info                            : UTF-8 Plain Text
  53. Duration                                 : 1 h 32 min
  54. Bit rate                                 : 44 b/s
  55. Count of elements                        : 1096
  56. Stream size                              : 29.8 KiB (0%)
  57. Language                                 : English
  58. Default                                  : Yes
  59. Forced                                   : No

  60. Text #2
  61. ID                                       : 4
  62. Format                                   : UTF-8
  63. Codec ID                                 : S_TEXT/UTF8
  64. Codec ID/Info                            : UTF-8 Plain Text
  65. Duration                                 : 1 h 42 min
  66. Bit rate                                 : 48 b/s
  67. Count of elements                        : 1374
  68. Stream size                              : 36.6 KiB (0%)
  69. Title                                    : SDH
  70. Language                                 : English
  71. Default                                  : No
  72. Forced                                   : No

  73. Menu
  74. 00:00:00.000                             : en:Chapter 01
  75. 00:07:30.125                             : en:Chapter 02
  76. 00:12:48.750                             : en:Chapter 03
  77. 00:20:49.083                             : en:Chapter 04
  78. 00:26:09.458                             : en:Chapter 05
  79. 00:32:28.667                             : en:Chapter 06
  80. 00:39:43.125                             : en:Chapter 07
  81. 00:45:42.458                             : en:Chapter 08
  82. 00:49:13.208                             : en:Chapter 09
  83. 00:56:39.292                             : en:Chapter 10
  84. 01:04:15.333                             : en:Chapter 11
  85. 01:10:54.875                             : en:Chapter 12
  86. 01:17:31.083                             : en:Chapter 13
  87. 01:22:24.792                             : en:Chapter 14
  88. 01:29:23.292                             : en:Chapter 15
  89. 01:36:33.000                             : en:Chapter 16
复制代码

崛起 Rise.2014.1080p.BluRay.x264.DTS-FGT 9.33GB-1.png 崛起 Rise.2014.1080p.BluRay.x264.DTS-FGT 9.33GB-2.png 崛起 Rise.2014.1080p.BluRay.x264.DTS-FGT 9.33GB-3.png






回复

使用道具 举报

发表于 2020-5-23 00:00:38 | 显示全部楼层
感謝分享這遊戲
回复 支持 反对

使用道具 举报

发表于 7 天前 | 显示全部楼层

楼主太厉害了!楼主,电影应该很好看我觉得蓝光电影网真是个好地方!
回复 支持 反对

使用道具 举报

懒得打字嘛,点击右侧快捷回复 【右侧内容,后台自定义】
您需要登录后才可以回帖 登录 | 立即加入

本版积分规则

现在加入蓝光电影网,注册一个账号
上个主题 下个主题 快速回复 收藏帖子 返回列表 客服中心 搜索

手机版|小黑屋| 蓝光电影网 |网站地图 

Copyright © 2015-2019 Comsenz Inc.  Template by 蓝光电影论坛 All Rights Reserved.

Powered by 蓝光电影网 X3.4

特别声明:本站所有资源均由网上收集而来,版权归原影音公司所有,如果侵犯了你的权益,请通知我们,我们会及时删除侵权内容.

快速回复 返回顶部 返回列表