找回密码

蓝光电影网

查看: 116|回复: 4

[剧情] 胭脂扣 Rouge.1987.CHINESE.1080p.BluRay.x264.DTS-FGT 8.83GB

[复制链接]

 成长值: 26140

发表于 2020-5-22 23:48:54 | 显示全部楼层 |阅读模式
p2205476838.jpg

译  名 Rouge
片  名 胭脂扣
年  代 1987
产  地 中国香港
类  别 剧情 / 爱情 / 奇幻
语  言 粤语 / 汉语普通话
上映日期 1987-12-05(中国台湾)
IMDb评分  7.4/10 from 1937 users
IMDb链接  https://www.imdb.com/title/tt0093258
豆瓣评分 8.4/10 from 211166 users
豆瓣链接 https://movie.douban.com/subject/1299288/
片  长 96分钟(香港)
导  演 关锦鹏 Stanley Kwan
编  剧 邱刚健 Kang Chien Chiu / 李碧华 Lilian Lee Pik-Wah
主  演 梅艳芳 Anita Mui
       张国荣 Leslie Cheung
       万梓良 Alex Man
       朱宝意 Emily Chu
       温碧霞 Irene Wan
       谭倩红 Sin Hung Tam
       谢贤 Yin Tse
       汪禹 Wong Yue
       刘家荣 Chia Yung Liu
       惠英红 Kara Hui
       朱瑞棠 Jui-tang Chu


标  签 张国荣 | 梅艳芳 | 爱情 | 香港 | 香港电影 | 经典 | 关锦鹏 | 李碧华

简  介  

  报社记者袁永定(万梓良 饰)遇到了一位前来登寻人广告的女子如花(梅艳芳 饰),无意中才发现了该名冷艳的女子原是鬼魂,早在50年前,她是一名红牌妓女,结识了一名纨绔子弟十二少陈振邦(张国荣 饰)。如花深深爱上了这名多情的公子,两人已到了谈婚论嫁的地步,由于身份悬殊,遭到了十二少家人的极力反对。无奈之下,他们以胭脂扣定情,一起吞鸦片殉情。如花未能在地府看到自己的爱人,便到阳间寻找。
  如花在两名记者的帮助下,得知原来当年十二少被人救活了,如今生活潦倒。面对十二少的懦弱,如花伤心欲绝,把胭脂扣返还,回到阴间投胎转世。

获奖情况  

  第24届台北金马影展(1987)
  金马奖 最佳剧情片(提名)
  金马奖 最佳女主角 梅艳芳
  金马奖 最佳摄影 黄仲标
  金马奖 最佳美术设计 朴若木 / 马光荣
  金马奖 最佳造型设计(提名) 朴若木 / 马光荣
  金马奖 最佳剪辑(提名) 张耀宗

  第8届香港电影金像奖(1989)
  最佳电影 成龙
  最佳导演 关锦鹏
  最佳编剧 邱刚健 / 李碧华
  最佳男主角(提名) 张国荣
  最佳女主角 梅艳芳
  最佳摄影(提名) 黄仲标
  最佳剪接 张耀宗
  最佳美术指导(提名) 朴若木 / 马光荣
  最佳原创电影音乐 黎小田
  最佳原创电影歌曲 梅艳芳 / 邓景生 / 黎小田
  1. Video
  2. ID                                       : 1
  3. Format                                   : AVC
  4. Format/Info                              : Advanced Video Codec
  5. Format profile                           : High@L4
  6. Format settings                          : CABAC / 4 Ref Frames
  7. Format settings, CABAC                   : Yes
  8. Format settings, Reference frames        : 4 frames
  9. Codec ID                                 : V_MPEG4/ISO/AVC
  10. Duration                                 : 1 h 37 min
  11. Bit rate                                 : 11.5 Mb/s
  12. Width                                    : 1 920 pixels
  13. Height                                   : 1 036 pixels
  14. Display aspect ratio                     : 1.85:1
  15. Frame rate mode                          : Constant
  16. Frame rate                               : 23.976 (24000/1001/189150) FPS
  17. Color space                              : YUV
  18. Chroma subsampling                       : 4:2:0
  19. Bit depth                                : 8 bits
  20. Scan type                                : Progressive
  21. Bits/(Pixel*Frame)                       : 0.241
  22. Stream size                              : 7.80 GiB (88%)
  23. Title                                    : Rouge.1987.CHINESE.1080p.BluRay.x264.DTS-FGT
  24. Writing library                          : x264 core 148 r2748 97eaef2
  25. Encoding settings                        : cabac=1 / ref=4 / deblock=1:-2:-2 / analyse=0x3:0x113 / me=umh / subme=9 / psy=1 / psy_rd=1.00:0.15 / mixed_ref=1 / me_range=16 / chroma_me=1 / trellis=2 / 8x8dct=1 / cqm=0 / deadzone=21,11 / fast_pskip=1 / chroma_qp_offset=-3 / threads=24 / lookahead_threads=3 / sliced_threads=0 / nr=0 / decimate=1 / interlaced=0 / bluray_compat=0 / constrained_intra=0 / bframes=3 / b_pyramid=2 / b_adapt=1 / b_bias=0 / direct=3 / weightb=1 / open_gop=0 / weightp=2 / keyint=250 / keyint_min=25 / scenecut=40 / intra_refresh=0 / rc_lookahead=50 / rc=2pass / mbtree=1 / bitrate=11500 / ratetol=1.0 / qcomp=0.60 / qpmin=0 / qpmax=69 / qpstep=4 / cplxblur=20.0 / qblur=0.5 / vbv_maxrate=31250 / vbv_bufsize=31250 / nal_hrd=none / filler=0 / ip_ratio=1.40 / aq=1:1.00
  26. Language                                 : Chinese
  27. Default                                  : Yes
  28. Forced                                   : No

  29. Audio
  30. ID                                       : 2
  31. Format                                   : DTS
  32. Format/Info                              : Digital Theater Systems
  33. Codec ID                                 : A_DTS
  34. Duration                                 : 1 h 37 min
  35. Bit rate mode                            : Constant
  36. Bit rate                                 : 1 509 kb/s
  37. Channel(s)                               : 6 channels
  38. Channel layout                           : C L R Ls Rs LFE
  39. Sampling rate                            : 48.0 kHz
  40. Frame rate                               : 93.750 FPS (512 SPF)
  41. Bit depth                                : 16 bits
  42. Compression mode                         : Lossy
  43. Stream size                              : 1.02 GiB (12%)
  44. Title                                    : Rouge.1987.CHINESE.1080p.BluRay.x264.DTS-FGT
  45. Language                                 : Chinese
  46. Default                                  : Yes
  47. Forced                                   : No

  48. Text
  49. ID                                       : 3
  50. Format                                   : UTF-8
  51. Codec ID                                 : S_TEXT/UTF8
  52. Codec ID/Info                            : UTF-8 Plain Text
  53. Duration                                 : 1 h 33 min
  54. Bit rate                                 : 36 b/s
  55. Count of elements                        : 1085
  56. Stream size                              : 24.7 KiB (0%)
  57. Language                                 : English
  58. Default                                  : Yes
  59. Forced                                   : No

  60. Menu
  61. 00:00:00.000                             : en:Chapter 1
  62. 00:08:58.580                             : en:Chapter 2
  63. 00:13:51.622                             : en:Chapter 3
  64. 00:19:43.808                             : en:Chapter 4
  65. 00:34:45.917                             : en:Chapter 5
  66. 00:42:05.731                             : en:Chapter 6
  67. 00:51:25.249                             : en:Chapter 7
  68. 01:01:21.386                             : en:Chapter 8
  69. 01:08:15.925                             : en:Chapter 9
  70. 01:15:16.137                             : en:Chapter 10
  71. 01:24:18.887                             : en:Chapter 11
  72. 01:30:02.647                             : en:Chapter 12
复制代码

胭脂扣 Rouge.1987.CHINESE.1080p.BluRay.x264.DTS-FGT 8.83GB-1.png 胭脂扣 Rouge.1987.CHINESE.1080p.BluRay.x264.DTS-FGT 8.83GB-2.png 胭脂扣 Rouge.1987.CHINESE.1080p.BluRay.x264.DTS-FGT 8.83GB-3.png







回复

使用道具 举报

 成长值: 2960

发表于 2020-5-23 17:50:30 | 显示全部楼层
谢谢楼主无私分享。
回复 支持 反对

使用道具 举报

发表于 2020-5-23 19:10:26 | 显示全部楼层

谢谢楼主无私分享。
回复 支持 反对

使用道具 举报

发表于 7 天前 | 显示全部楼层

楼主太厉害了!楼主,电影应该很好看我觉得蓝光电影网真是个好地方!
回复 支持 反对

使用道具 举报

发表于 7 天前 | 显示全部楼层

楼主太厉害了!楼主,电影应该很好看我觉得蓝光电影网真是个好地方!
回复 支持 反对

使用道具 举报

懒得打字嘛,点击右侧快捷回复 【右侧内容,后台自定义】
您需要登录后才可以回帖 登录 | 立即加入

本版积分规则

现在加入蓝光电影网,注册一个账号
上个主题 下个主题 快速回复 收藏帖子 返回列表 客服中心 搜索

手机版|小黑屋| 蓝光电影网 |网站地图 

Copyright © 2015-2019 Comsenz Inc.  Template by 蓝光电影论坛 All Rights Reserved.

Powered by 蓝光电影网 X3.4

特别声明:本站所有资源均由网上收集而来,版权归原影音公司所有,如果侵犯了你的权益,请通知我们,我们会及时删除侵权内容.

快速回复 返回顶部 返回列表