找回密码

蓝光电影网

查看: 118|回复: 0

[喜剧] 两性之争 The.Battle.Of.The.Sexes.1960.1080p.BluRay.x264.DTS-FGT 7.63GB

[复制链接]

 成长值: 26140

发表于 2020-5-22 23:44:50 | 显示全部楼层 |阅读模式
p2521025748.jpg

译  名 两性之争
片  名 The Battle of the Sexes
年  代 1959
产  地 英国
类  别 喜剧
语  言 英语
上映日期 1959
IMDb评分  6.7/10 from 1112 users
IMDb链接  https://www.imdb.com/title/tt0052607
豆瓣评分 0/10 from 0 users
豆瓣链接 https://movie.douban.com/subject/5060377/
片  长 84 分钟
导  演 Charles Crichton
编  剧 James Thurber / Monja Danischewsky
主  演 Peter Sellers
       Robert Morley
       Constance Cummings
       Jameson Clark
       Ernest Thesiger
       Donald Pleasence
       Moultrie Kelsall
       Alex Mackenzie
       Roddy McMillan
       Michael Goodliffe


标  签 英国电影 | CharlesCrichton | UK | RobertMorley | Peter_Sellers | PeterSellers | P-Mar-del-PlataA入围主竞赛 | Comedy

简  介  

  Classic British comedy adapted from a James Thurber story about a tweed manufacturer's elderly accountant who devises a plan to save the company from an American takeover bid. The arrival of an efficiency expert from the States causes enough of a stir but, when it turns out to be a woman, the old-fashioned number cruncher declares war. Man-eating businesswoman, Angela Barrows is sent by her US company to Edinburgh to investigate export opportunities. She meets businessman Robert MacPherson en route and he persuades her to help bring his company into the 20th century. The staff, lead by Mr. Martin, have other ideas and a battle between the old and new business methods breaks out.
  1. Video
  2. ID                                       : 1
  3. Format                                   : AVC
  4. Format/Info                              : Advanced Video Codec
  5. Format profile                           : High@L4
  6. Format settings                          : CABAC / 4 Ref Frames
  7. Format settings, CABAC                   : Yes
  8. Format settings, Reference frames        : 4 frames
  9. Codec ID                                 : V_MPEG4/ISO/AVC
  10. Duration                                 : 1 h 24 min
  11. Bit rate                                 : 11.5 Mb/s
  12. Width                                    : 1 800 pixels
  13. Height                                   : 1 080 pixels
  14. Display aspect ratio                     : 5:3
  15. Frame rate mode                          : Constant
  16. Frame rate                               : 24.000 FPS
  17. Color space                              : YUV
  18. Chroma subsampling                       : 4:2:0
  19. Bit depth                                : 8 bits
  20. Scan type                                : Progressive
  21. Bits/(Pixel*Frame)                       : 0.246
  22. Stream size                              : 6.75 GiB (88%)
  23. Title                                    : The.Battle.Of.The.Sexes.1960.1080p.BluRay.x264.DTS-FGT
  24. Writing library                          : x264 core 148 r2748 97eaef2
  25. Encoding settings                        : cabac=1 / ref=4 / deblock=1:-2:-2 / analyse=0x3:0x113 / me=umh / subme=9 / psy=1 / psy_rd=1.00:0.15 / mixed_ref=1 / me_range=16 / chroma_me=1 / trellis=2 / 8x8dct=1 / cqm=0 / deadzone=21,11 / fast_pskip=1 / chroma_qp_offset=-3 / threads=24 / lookahead_threads=3 / sliced_threads=0 / nr=0 / decimate=1 / interlaced=0 / bluray_compat=0 / constrained_intra=0 / bframes=3 / b_pyramid=2 / b_adapt=1 / b_bias=0 / direct=3 / weightb=1 / open_gop=0 / weightp=2 / keyint=250 / keyint_min=25 / scenecut=40 / intra_refresh=0 / rc_lookahead=50 / rc=2pass / mbtree=1 / bitrate=11500 / ratetol=1.0 / qcomp=0.60 / qpmin=0 / qpmax=69 / qpstep=4 / cplxblur=20.0 / qblur=0.5 / vbv_maxrate=31250 / vbv_bufsize=31250 / nal_hrd=none / filler=0 / ip_ratio=1.40 / aq=1:1.00
  26. Language                                 : English
  27. Default                                  : Yes
  28. Forced                                   : No

  29. Audio
  30. ID                                       : 2
  31. Format                                   : DTS
  32. Format/Info                              : Digital Theater Systems
  33. Codec ID                                 : A_DTS
  34. Duration                                 : 1 h 24 min
  35. Bit rate mode                            : Constant
  36. Bit rate                                 : 1 509 kb/s
  37. Channel(s)                               : 2 channels
  38. Channel layout                           : L R
  39. Sampling rate                            : 48.0 kHz
  40. Frame rate                               : 93.750 FPS (512 SPF)
  41. Bit depth                                : 16 bits
  42. Compression mode                         : Lossy
  43. Stream size                              : 907 MiB (12%)
  44. Title                                    : The.Battle.Of.The.Sexes.1960.1080p.BluRay.x264.DTS-FGT
  45. Language                                 : English
  46. Default                                  : Yes
  47. Forced                                   : No

  48. Text
  49. ID                                       : 3
  50. Format                                   : UTF-8
  51. Codec ID                                 : S_TEXT/UTF8
  52. Codec ID/Info                            : UTF-8 Plain Text
  53. Duration                                 : 1 h 22 min
  54. Bit rate                                 : 84 b/s
  55. Count of elements                        : 1358
  56. Stream size                              : 51.0 KiB (0%)
  57. Language                                 : English
  58. Default                                  : Yes
  59. Forced                                   : No

  60. Menu
  61. 00:00:00.000                             : en:Chapter 1
  62. 00:06:18.000                             : en:Chapter 2
  63. 00:14:27.417                             : en:Chapter 3
  64. 00:20:02.208                             : en:Chapter 4
  65. 00:25:26.083                             : en:Chapter 5
  66. 00:33:59.083                             : en:Chapter 6
  67. 00:39:09.583                             : en:Chapter 7
  68. 00:47:42.375                             : en:Chapter 8
  69. 00:57:06.667                             : en:Chapter 9
  70. 01:02:01.583                             : en:Chapter 10
  71. 01:09:17.208                             : en:Chapter 11
  72. 01:15:17.292                             : en:Chapter 12
复制代码

两性之争 The.Battle.Of.The.Sexes.1960.1080p.BluRay.x264.DTS-FGT 7.63GB-1.png 两性之争 The.Battle.Of.The.Sexes.1960.1080p.BluRay.x264.DTS-FGT 7.63GB-2.png 两性之争 The.Battle.Of.The.Sexes.1960.1080p.BluRay.x264.DTS-FGT 7.63GB-3.png







回复

使用道具 举报

懒得打字嘛,点击右侧快捷回复 【右侧内容,后台自定义】
您需要登录后才可以回帖 登录 | 立即加入

本版积分规则

现在加入蓝光电影网,注册一个账号
上个主题 下个主题 快速回复 收藏帖子 返回列表 客服中心 搜索

手机版|小黑屋| 蓝光电影网 |网站地图 

Copyright © 2015-2019 Comsenz Inc.  Template by 蓝光电影论坛 All Rights Reserved.

Powered by 蓝光电影网 X3.4

特别声明:本站所有资源均由网上收集而来,版权归原影音公司所有,如果侵犯了你的权益,请通知我们,我们会及时删除侵权内容.

快速回复 返回顶部 返回列表