找回密码

蓝光电影网

查看: 54|回复: 0

[恐怖] 喉恋 The.Climax.1944.1080p.BluRay.x264.DTS-FGT 7.38GB

[复制链接]

 成长值: 26140

发表于 2020-5-22 23:43:40 | 显示全部楼层 |阅读模式



喉恋 The.Climax.1944.1080p.BluRay.x264.DTS-FGT 7.38GB-1.png

译  名 喉恋
片  名 The Climax
年  代 1944
产  地 美国
类  别 恐怖
语  言 英语
上映日期 1944-10-20
IMDb评分  5.5/10 from 661 users
IMDb链接  https://www.imdb.com/title/tt0036715
豆瓣评分 0/10 from 0 users
豆瓣链接 https://movie.douban.com/subject/1848324/
片  长 86 分钟
导  演 乔治·瓦格纳 George Waggner
编  剧 Edward Locke / Curt Siodmak
主  演 波利斯·卡洛夫 Boris Karloff
       苏珊娜·福斯特 Susanna Foster
       杜亨·贝 Turhan Bey
       盖尔·桑德加德 Gale Sondergaard
       托马斯·戈梅斯 Thomas Gomez
       June Vincent


标  签 美国电影 | 歌舞 | 恐怖 | 鲍里斯·卡洛夫 | 美国 | 歌舞片 | 无资源 | 悬疑

简  介  

  暂无相关剧情介绍

获奖情况  

  第17届奥斯卡金像奖(1945)
  彩色片最佳艺术指导和室内布景(提名) 约翰·B·古德曼 / 亚历山大·高利思 / 艾拉·韦布 / 罗素·A·盖斯曼
  1. Video
  2. ID                                       : 1
  3. Format                                   : AVC
  4. Format/Info                              : Advanced Video Codec
  5. Format profile                           : High@L4
  6. Format settings                          : CABAC / 4 Ref Frames
  7. Format settings, CABAC                   : Yes
  8. Format settings, Reference frames        : 4 frames
  9. Codec ID                                 : V_MPEG4/ISO/AVC
  10. Duration                                 : 1 h 26 min
  11. Bit rate                                 : 11.5 Mb/s
  12. Width                                    : 1 480 pixels
  13. Height                                   : 1 080 pixels
  14. Display aspect ratio                     : 1.370
  15. Frame rate mode                          : Constant
  16. Frame rate                               : 23.976 (24000/1001/189150) FPS
  17. Color space                              : YUV
  18. Chroma subsampling                       : 4:2:0
  19. Bit depth                                : 8 bits
  20. Scan type                                : Progressive
  21. Bits/(Pixel*Frame)                       : 0.300
  22. Stream size                              : 6.92 GiB (94%)
  23. Title                                    : The.Climax.1944.1080p.BluRay.x264.DTS-FGT
  24. Writing library                          : x264 core 148 r2795M aaa9aa8
  25. Encoding settings                        : cabac=1 / ref=4 / deblock=1:-2:-2 / analyse=0x3:0x113 / me=umh / subme=9 / psy=1 / psy_rd=1.00:0.15 / mixed_ref=1 / me_range=16 / chroma_me=1 / trellis=2 / 8x8dct=1 / cqm=0 / deadzone=21,11 / fast_pskip=1 / chroma_qp_offset=-3 / threads=24 / lookahead_threads=3 / sliced_threads=0 / nr=0 / decimate=1 / interlaced=0 / bluray_compat=0 / constrained_intra=0 / bframes=3 / b_pyramid=2 / b_adapt=1 / b_bias=0 / direct=3 / weightb=1 / open_gop=0 / weightp=2 / keyint=250 / keyint_min=25 / scenecut=40 / intra_refresh=0 / rc_lookahead=50 / rc=2pass / mbtree=1 / bitrate=11500 / ratetol=1.0 / qcomp=0.60 / qpmin=0 / qpmax=69 / qpstep=4 / cplxblur=20.0 / qblur=0.5 / vbv_maxrate=31250 / vbv_bufsize=31250 / nal_hrd=none / filler=0 / ip_ratio=1.40 / aq=1:1.00
  26. Language                                 : English
  27. Default                                  : Yes
  28. Forced                                   : No

  29. Audio
  30. ID                                       : 2
  31. ID in the original source medium         : 4352 (0x1100)
  32. Format                                   : DTS
  33. Format/Info                              : Digital Theater Systems
  34. Codec ID                                 : A_DTS
  35. Duration                                 : 1 h 26 min
  36. Bit rate mode                            : Constant
  37. Bit rate                                 : 768 kb/s
  38. Channel(s)                               : 1 channel
  39. Channel layout                           : C
  40. Sampling rate                            : 48.0 kHz
  41. Frame rate                               : 93.750 FPS (512 SPF)
  42. Bit depth                                : 24 bits
  43. Compression mode                         : Lossy
  44. Stream size                              : 473 MiB (6%)
  45. Title                                    : The.Climax.1944.1080p.BluRay.x264.DTS-FGT
  46. Language                                 : English
  47. Default                                  : Yes
  48. Forced                                   : No
  49. Original source medium                   : Blu-ray

  50. Text
  51. ID                                       : 3
  52. Format                                   : UTF-8
  53. Codec ID                                 : S_TEXT/UTF8
  54. Codec ID/Info                            : UTF-8 Plain Text
  55. Duration                                 : 1 h 23 min
  56. Bit rate                                 : 56 b/s
  57. Count of elements                        : 1279
  58. Stream size                              : 34.6 KiB (0%)
  59. Language                                 : English
  60. Default                                  : Yes
  61. Forced                                   : No

  62. Menu
  63. 00:00:00.000                             : en:Chapter 01
  64. 00:09:27.316                             : en:Chapter 02
  65. 00:13:36.148                             : en:Chapter 03
  66. 00:18:53.882                             : en:Chapter 04
  67. 00:29:27.724                             : en:Chapter 05
  68. 00:35:36.134                             : en:Chapter 06
  69. 00:45:24.179                             : en:Chapter 07
  70. 00:53:16.026                             : en:Chapter 08
  71. 01:00:05.643                             : en:Chapter 09
  72. 01:05:42.188                             : en:Chapter 10
  73. 01:10:38.150                             : en:Chapter 11
  74. 01:17:20.260                             : en:Chapter 12
复制代码

喉恋 The.Climax.1944.1080p.BluRay.x264.DTS-FGT 7.38GB-2.png 喉恋 The.Climax.1944.1080p.BluRay.x264.DTS-FGT 7.38GB-3.png 喉恋 The.Climax.1944.1080p.BluRay.x264.DTS-FGT 7.38GB-4.png







回复

使用道具 举报

懒得打字嘛,点击右侧快捷回复 【右侧内容,后台自定义】
您需要登录后才可以回帖 登录 | 立即加入

本版积分规则

现在加入蓝光电影网,注册一个账号
上个主题 下个主题 快速回复 收藏帖子 返回列表 客服中心 搜索

手机版|小黑屋| 蓝光电影网 |网站地图 

Copyright © 2015-2019 Comsenz Inc.  Template by 蓝光电影论坛 All Rights Reserved.

Powered by 蓝光电影网 X3.4

特别声明:本站所有资源均由网上收集而来,版权归原影音公司所有,如果侵犯了你的权益,请通知我们,我们会及时删除侵权内容.

快速回复 返回顶部 返回列表